<?xml version="1.0" standalone="no"?>
<!DOCTYPE svg PUBLIC "-//W3C//DTD SVG 1.1//EN" "http://www.w3.org/Graphics/SVG/1.1/DTD/svg11.dtd" >
<svg xmlns="http://www.w3.org/2000/svg" xmlns:xlink="http://www.w3.org/1999/xlink" version="1.1">
<metadata>
Created by FontForge 20201107 at Tue Aug 31 23:41:11 2021
 By 
Copyright 2011 The Dosis Project Authors (https://github.com/googlefonts/dosis-vf)
</metadata>
<defs>
<font id="Dosis-ExtraBold" horiz-adv-x="0" >
  <font-face 
    font-family="Dosis ExtraBold"
    font-weight="800"
    font-stretch="normal"
    units-per-em="1000"
    panose-1="0 0 0 0 0 0 0 0 0 0"
    ascent="800"
    descent="-200"
    x-height="476"
    cap-height="731"
    bbox="-130 -237 1132 1123"
    underline-thickness="50"
    underline-position="-125"
    unicode-range="U+000D-FB02"
  />
<missing-glyph horiz-adv-x="408" 
d="M92 9q-23 0 -42.5 15.5t-19.5 38.5q0 8 2 16t8 16l96 141l-96 141q-6 8 -8 16.5t-2 15.5q0 23 19.5 38.5t42.5 15.5q28 0 44 -23l68 -115l68 115q16 23 44 23q23 0 42.5 -15.5t19.5 -38.5q0 -7 -2 -15.5t-8 -16.5l-96 -141l96 -141q6 -8 8 -16t2 -16q0 -23 -19.5 -38.5
t-42.5 -15.5q-28 0 -44 23l-68 115l-68 -115q-16 -23 -44 -23z" />
    <glyph glyph-name="fi" unicode="fi" horiz-adv-x="590" 
d="M122 0q-32 0 -54 13t-22 34v470q0 64 32 116.5t91 83.5t140 31q44 0 85 -9.5t67 -26t26 -39.5q0 -9 -5.5 -31t-17.5 -41t-31 -19q-14 0 -27.5 9t-35 18t-61.5 9q-22 0 -41.5 -4.5t-34.5 -15t-23.5 -28.5t-8.5 -46v-48h92q19 0 28.5 -17.5t9.5 -37.5q0 -21 -9.5 -38
t-28.5 -17h-92v-319q0 -21 -23.5 -34t-55.5 -13zM467 0q-33 0 -54.5 15t-21.5 33v381q0 21 21.5 34t54.5 13t56 -13t23 -34v-381q0 -18 -23 -33t-56 -15z" />
    <glyph glyph-name="fl" unicode="fl" horiz-adv-x="602" 
d="M122 0q-32 0 -54 13t-22 34v470q0 75 39.5 126.5t104 78t139.5 26.5q38 0 80.5 -6.5t80 -20t58.5 -34.5v-639q0 -18 -23 -33t-56 -15t-54.5 15t-21.5 33v557q-10 6 -30.5 10t-40.5 4q-30 0 -57.5 -10t-45.5 -31t-18 -54v-48h92q19 0 28.5 -17.5t9.5 -37.5q0 -21 -9.5 -38
t-28.5 -17h-92v-319q0 -21 -23.5 -34t-55.5 -13z" />
    <glyph glyph-name=".notdef" horiz-adv-x="408" 
d="M92 9q-23 0 -42.5 15.5t-19.5 38.5q0 8 2 16t8 16l96 141l-96 141q-6 8 -8 16.5t-2 15.5q0 23 19.5 38.5t42.5 15.5q28 0 44 -23l68 -115l68 115q16 23 44 23q23 0 42.5 -15.5t19.5 -38.5q0 -7 -2 -15.5t-8 -16.5l-96 -141l96 -141q6 -8 8 -16t2 -16q0 -23 -19.5 -38.5
t-42.5 -15.5q-28 0 -44 23l-68 115l-68 -115q-16 -23 -44 -23z" />
    <glyph glyph-name=".null" 
 />
    <glyph glyph-name="nonmarkingreturn" horiz-adv-x="333" 
 />
    <glyph glyph-name="NULL" 
 />
    <glyph glyph-name="NULL" 
 />
    <glyph glyph-name="CR" unicode="&#xd;" horiz-adv-x="200" 
 />
    <glyph glyph-name="space" unicode=" " horiz-adv-x="200" 
 />
    <glyph glyph-name="exclam" unicode="!" horiz-adv-x="229" 
d="M115 217q-24 0 -41.5 10.5t-17.5 33.5q0 60 -3.5 132.5l-7 145t-3.5 131.5q0 29 21 45t52 16q29 0 50.5 -16t21.5 -45q0 -59 -3.5 -131.5l-7 -145t-3.5 -132.5q0 -23 -20 -33.5t-38 -10.5zM116 -6q-33 0 -55 23t-22 54q0 32 22 54.5t55 22.5q31 0 53.5 -22.5t22.5 -54.5
q0 -31 -22.5 -54t-53.5 -23z" />
    <glyph glyph-name="quotedbl" unicode="&#x22;" horiz-adv-x="315" 
d="M237 559q-24 0 -34 12t-10 26l-10 134q0 17 16.5 27t37.5 10t38 -10t17 -27l-10 -134q0 -14 -10.5 -26t-34.5 -12zM77 559q-24 0 -34 12t-10 26l-10 134q0 17 16.5 27t37.5 10t38 -10t17 -27l-10 -134q0 -14 -10.5 -26t-34.5 -12z" />
    <glyph glyph-name="numbersign" unicode="#" horiz-adv-x="717" 
d="M187 28q-25 0 -50.5 14.5t-25.5 42.5l22 122h-70q-19 0 -30.5 15.5t-11.5 40.5t12 42t31 17h92l21 108h-71q-19 0 -30.5 15.5t-11.5 40.5t12 42t31 17h93l26 136q3 15 23 23.5t42 8.5q26 0 48 -12.5t22 -44.5l-21 -111h103l26 136q3 15 23 23.5t42 8.5q26 0 48 -12.5
t23 -44.5l-22 -111h70q17 0 30 -16.5t13 -40.5q0 -25 -13.5 -41.5t-30.5 -16.5h-90l-22 -108h70q17 0 30.5 -16.5t13.5 -40.5q0 -26 -14 -42t-31 -16h-91l-28 -145q-3 -14 -22 -24t-38 -10q-16 0 -34 6.5t-30.5 19t-12.5 31.5l23 122h-101l-28 -145q-3 -14 -22.5 -24
t-37.5 -10zM297 322h102l21 108h-102z" />
    <glyph glyph-name="dollar" unicode="$" horiz-adv-x="541" 
d="M280 -52q-16 0 -27 8.5t-11 18.5v25q-60 2 -109.5 21t-79 48t-29.5 61q0 17 9 36.5t24.5 33.5t34.5 14q16 0 31 -9t32 -22t38 -24.5t49 -16.5v162q-34 13 -69.5 29t-65 39t-47.5 56.5t-18 81.5t16 83.5t44 60t64 39t76 20.5v28q0 11 11 19t27 8q14 0 26 -8t12 -19v-25
q23 -1 53.5 -5t59 -13.5t47.5 -26t19 -42.5q0 -13 -6.5 -32.5t-20 -34.5t-35.5 -15q-16 0 -30.5 8t-34 17.5t-52.5 11.5v-146q34 -13 69 -29.5t64 -40.5t46.5 -59.5t17.5 -86.5q0 -93 -54.5 -148.5t-142.5 -69.5v-29q0 -10 -12 -18.5t-26 -8.5zM308 143q26 6 43.5 21
t17.5 42q0 17 -7.5 29.5t-21.5 23t-32 18.5v-134zM252 462v119q-22 -4 -36.5 -13t-21 -20t-6.5 -23q0 -14 8 -25.5t22.5 -20.5t33.5 -17z" />
    <glyph glyph-name="percent" unicode="%" horiz-adv-x="807" 
d="M233 -46q-25 0 -40.5 17t-15.5 36q0 9 5 19l351 721q12 25 42 25q21 0 40 -14.5t19 -38.5q0 -11 -4 -19l-352 -721q-5 -11 -18 -18t-27 -7zM174 319q-64 0 -107 30.5t-43 104.5v142q0 74 43 104.5t107 30.5q42 0 76 -13t54 -42.5t20 -79.5v-142q0 -49 -20 -79t-54 -43
t-76 -13zM174 406q23 0 36.5 11.5t13.5 36.5v142q0 25 -13.5 36.5t-36.5 11.5t-36 -11.5t-13 -36.5v-142q0 -25 13 -36.5t36 -11.5zM633 -3q-64 0 -107 30.5t-43 104.5v142q0 74 43 104.5t107 30.5q42 0 76 -13t54 -42.5t20 -79.5v-142q0 -49 -20 -79t-54 -43t-76 -13z
M633 84q23 0 36.5 11.5t13.5 36.5v142q0 25 -13.5 36.5t-36.5 11.5t-36 -11.5t-13 -36.5v-142q0 -25 13 -36.5t36 -11.5z" />
    <glyph glyph-name="ampersand" unicode="&#x26;" horiz-adv-x="655" 
d="M278 -10q-79 0 -137.5 31t-90.5 82t-32 110q0 44 16.5 83.5t44 71t59.5 50.5q-28 31 -46.5 65t-18.5 80q0 59 29.5 100t80 63t111.5 22q63 0 110.5 -20t73.5 -49t26 -56t-23.5 -49.5t-50.5 -22.5q-19 0 -32 11t-26 25.5t-30.5 25.5t-46.5 11q-32 0 -55 -17t-23 -51
q0 -28 18.5 -56t43.5 -53t45 -46l144 -149q14 35 14.5 64.5t2.5 50.5q3 21 16 32.5t53 11.5q41 0 53.5 -19t12.5 -52q0 -27 -6.5 -58t-19 -63t-32.5 -63l76 -78q5 -6 7 -12.5t2 -12.5q0 -23 -22.5 -43t-49.5 -20q-10 0 -18.5 4t-19.5 14l-54 55q-40 -33 -91 -53t-114 -20z
M295 125q32 0 56 8.5t41 23.5l-167 171q-14 -12 -25.5 -27.5t-18 -34t-6.5 -40.5q0 -29 14 -52t40.5 -36t65.5 -13z" />
    <glyph glyph-name="quotesingle" unicode="'" horiz-adv-x="155" 
d="M77 559q-24 0 -34 12t-10 26l-10 134q0 17 16.5 27t37.5 10t38 -10t17 -27l-10 -134q0 -14 -10.5 -26t-34.5 -12z" />
    <glyph glyph-name="parenleft" unicode="(" horiz-adv-x="358" 
d="M263 -20q-37 0 -75.5 10.5t-71.5 33.5t-53 60t-20 89v388q0 48 20.5 86.5t53.5 65.5t72.5 41t77.5 14q47 0 62 -19.5t15 -47.5q0 -31 -13 -49.5t-34 -18.5q-31 0 -53 -10.5t-33.5 -27t-11.5 -34.5v-388q0 -24 15.5 -36.5t38.5 -17t44 -4.5q29 0 38 -21.5t9 -47.5
q0 -29 -14 -47.5t-67 -18.5z" />
    <glyph glyph-name="parenright" unicode=")" horiz-adv-x="358" 
d="M95 -20q-52 0 -66.5 18.5t-14.5 47.5q0 26 9 47.5t38 21.5q22 0 44.5 4.5t38 17t15.5 36.5v388q0 18 -11.5 34.5t-33 27t-53.5 10.5q-21 0 -34 18.5t-13 49.5q0 28 15.5 47.5t61.5 19.5q38 0 77.5 -14t72.5 -41t53.5 -65.5t20.5 -86.5v-388q0 -52 -20 -89t-53 -60
t-71.5 -33.5t-75.5 -10.5z" />
    <glyph glyph-name="asterisk" unicode="*" horiz-adv-x="491" 
d="M145 304q-12 0 -26.5 6t-25.5 18t-11 28q0 18 12 32l66 94l-104 30q-17 4 -25.5 18t-8.5 33q0 20 15.5 37.5t39.5 17.5q2 0 6 -0.5t9 -2.5l105 -34l-5 102q1 25 17 36.5t37 11.5t36.5 -11.5t16.5 -36.5l-4 -104l106 36q8 3 15 3q23 0 37.5 -20t14.5 -42q0 -15 -8 -27.5
t-26 -16.5l-102 -24l70 -101q8 -10 8 -29q0 -24 -19.5 -39t-41.5 -15q-8 0 -19 3t-19 16l-65 100l-66 -101q-7 -11 -15.5 -14.5t-19.5 -3.5z" />
    <glyph glyph-name="plus" unicode="+" horiz-adv-x="455" 
d="M228 77q-27 0 -45.5 13t-18.5 34v97h-97q-21 0 -34 17.5t-13 45.5q0 27 13 45.5t34 18.5h97v96q0 18 18.5 33t45.5 15q29 0 46 -15t17 -33v-96h96q18 0 33 -18.5t15 -45.5q0 -28 -15 -45.5t-33 -17.5h-96v-97q0 -21 -17 -34t-46 -13z" />
    <glyph glyph-name="comma" unicode="," horiz-adv-x="199" 
d="M84 -106q-16 0 -33 10t-17 29q0 8 4 16l25 54q-18 11 -29 28.5t-11 39.5q0 32 22.5 54.5t53.5 22.5q32 0 54.5 -22.5t22.5 -53.5q0 -4 -1.5 -11t-7.5 -22t-18.5 -45.5t-34.5 -81.5q-4 -10 -13 -14t-17 -4z" />
    <glyph glyph-name="hyphen" unicode="-" horiz-adv-x="416" 
d="M78 177q-21 0 -34 17.5t-13 45.5q0 27 13 45.5t34 18.5h260q18 0 33 -18.5t15 -45.5q0 -28 -15 -45.5t-33 -17.5h-260z" />
    <glyph glyph-name="period" unicode="." horiz-adv-x="199" 
d="M100 -6q-33 0 -55 23t-22 54q0 32 22 54.5t55 22.5q31 0 53.5 -22.5t22.5 -54.5q0 -31 -22.5 -54t-53.5 -23z" />
    <glyph glyph-name="slash" unicode="/" horiz-adv-x="491" 
d="M73 -46q-25 0 -40.5 17t-15.5 36q0 9 5 19l351 721q12 25 42 25q21 0 40 -14.5t19 -38.5q0 -11 -4 -19l-352 -721q-5 -11 -18 -18t-27 -7z" />
    <glyph glyph-name="zero" unicode="0" horiz-adv-x="569" 
d="M284 -6q-69 0 -124.5 23t-88 75t-32.5 138v265q0 86 32.5 138t88 75t124.5 23t125 -23t88.5 -75t32.5 -138v-265q0 -86 -32.5 -138t-88.5 -75t-125 -23zM284 130q42 0 66 24t24 76v265q0 52 -24 76t-66 24t-65.5 -24t-23.5 -76v-265q0 -52 23.5 -76t65.5 -24zM285 311
q-24 0 -37.5 14.5t-13.5 37.5q0 22 13.5 35.5t37.5 13.5q23 0 36.5 -13.5t13.5 -35.5q0 -23 -13.5 -37.5t-36.5 -14.5z" />
    <glyph glyph-name="one" unicode="1" horiz-adv-x="308" 
d="M179 0q-29 0 -53.5 12t-24.5 36v509l-29 -18q-7 -4 -13.5 -6t-11.5 -2q-22 0 -35.5 19.5t-13.5 42.5q0 16 7 30t22 23l132 80q6 4 13.5 5.5t15.5 1.5q24 0 46.5 -13t22.5 -36v-636q0 -24 -24.5 -36t-53.5 -12z" />
    <glyph glyph-name="two" unicode="2" horiz-adv-x="517" 
d="M91 0q-21 0 -44.5 13t-23.5 35v97q0 39 22.5 73.5t58.5 65t76.5 59.5t76 57.5t58.5 57.5t23 61q0 16 -7.5 32.5t-24 27.5t-44.5 11q-30 0 -52.5 -17t-22.5 -58q0 -22 -22 -39.5t-60 -17.5q-30 0 -50 17t-20 64q0 61 32.5 104t84.5 65.5t109 22.5q58 0 111.5 -24t87.5 -70
t34 -113q0 -54 -22.5 -97t-57.5 -77.5t-74.5 -62.5t-74.5 -51.5t-57.5 -45.5t-22.5 -45v-9h262q19 0 33 -20t14 -47t-14 -48t-33 -21h-356z" />
    <glyph glyph-name="three" unicode="3" horiz-adv-x="534" 
d="M254 -6q-64 0 -109.5 17.5t-74 45.5t-41.5 61.5t-13 64.5q0 34 16.5 45.5t57.5 11.5q48 0 64 -11.5t16 -40.5q0 -18 7.5 -29t20 -17.5t28.5 -9t33 -2.5q51 0 71.5 20.5t20.5 69.5v19q0 50 -27.5 65t-68.5 15q-25 0 -35 19t-10 41q0 23 10 41.5t35 18.5q19 0 37 4.5
t29.5 23t11.5 58.5q0 44 -21.5 58t-52.5 14q-18 0 -32 -2.5t-23.5 -8.5t-14 -15.5t-4.5 -24.5q0 -25 -14.5 -41t-58.5 -16q-36 0 -53 5.5t-22.5 19.5t-5.5 38q0 29 11.5 60.5t38 58.5t70.5 43.5t108 16.5t114 -17t79.5 -56.5t29.5 -107.5q0 -55 -19.5 -101t-57.5 -63
q44 -16 73 -51t29 -96v-19q0 -82 -34 -131.5t-91.5 -72t-127.5 -22.5z" />
    <glyph glyph-name="four" unicode="4" horiz-adv-x="525" 
d="M359 0q-29 0 -53.5 12t-24.5 36v106h-234q-22 0 -37 14t-15 40q0 6 2 14t6 16l231 453q11 22 28.5 31t36.5 9q14 0 32 -7t32 -20.5t14 -31.5q0 -7 -5 -19l-177 -355h86v70q0 25 24.5 36t53.5 11t53.5 -11t24.5 -36v-70h43q24 0 36 -22.5t12 -49.5t-15 -49.5t-33 -22.5
h-43v-106q0 -24 -24.5 -36t-53.5 -12z" />
    <glyph glyph-name="five" unicode="5" horiz-adv-x="521" 
d="M260 -6q-80 0 -135.5 27t-83.5 69.5t-28 89.5q0 41 20.5 55t57.5 14q51 0 64.5 -17t13.5 -41q0 -20 11.5 -33.5t31.5 -20.5t44 -7q43 0 67 22.5t24 71.5v19q0 50 -24 74t-65 24h-152q-34 0 -47 16.5t-13 44.5q0 8 0.5 14.5t1.5 14.5l27 252q2 23 8.5 35.5t19.5 12.5h319
q23 0 34 -21t11 -47q0 -25 -11 -46.5t-34 -21.5h-219l-10 -134h65q69 0 124.5 -21t88 -69t32.5 -128v-19q0 -83 -33 -134t-88 -73.5t-122 -22.5z" />
    <glyph glyph-name="six" unicode="6" horiz-adv-x="562" 
d="M285 -6q-69 0 -124.5 23t-88.5 75t-33 138v265q0 86 34 138t91.5 75t129.5 23q63 0 108 -17.5t73.5 -45.5t41.5 -61t13 -64q0 -36 -17.5 -49.5t-55.5 -13.5q-32 0 -56.5 11.5t-24.5 45.5q0 19 -12 32t-31.5 19.5t-43.5 6.5q-44 0 -69 -24t-25 -76v-90q24 26 56.5 35
t68.5 9q57 0 104.5 -19t76.5 -65t29 -126v-9q0 -86 -32.5 -138t-88 -75t-124.5 -23zM285 120q42 0 65.5 23.5t23.5 75.5v9q0 55 -23.5 78t-66.5 23q-40 0 -64.5 -21t-24.5 -71v-18q0 -52 24 -75.5t66 -23.5z" />
    <glyph glyph-name="seven" unicode="7" horiz-adv-x="512" 
d="M193 -6q-24 0 -47 10.5t-37.5 28.5t-14.5 40q0 13 7 26l246 426v70h-179v-67q0 -20 -24 -34t-55 -14t-54 14t-23 34v155q0 18 21.5 33t46.5 15h355q23 0 45.5 -15t22.5 -33v-125q0 -19 -10 -45.5t-22 -49.5l-234 -448q-11 -21 -44 -21z" />
    <glyph glyph-name="eight" unicode="8" horiz-adv-x="545" 
d="M273 -6q-69 0 -124.5 20.5t-88.5 66t-33 119.5v12q0 77 34.5 123t89.5 65q-44 15 -71.5 53t-27.5 100q0 63 28.5 102t78.5 57.5t114 18.5q65 0 114.5 -18.5t78 -57.5t28.5 -102q0 -62 -27.5 -100t-71.5 -53q56 -19 89.5 -65t33.5 -123v-12q0 -74 -32.5 -119.5t-88 -66
t-124.5 -20.5zM273 119q43 0 66 25t23 75v22q0 49 -23.5 72t-65.5 23t-66 -23t-24 -72v-22q0 -52 24.5 -76t65.5 -24zM273 461q34 0 52.5 16.5t18.5 55.5q0 38 -18.5 55.5t-52.5 17.5t-52.5 -17.5t-18.5 -55.5q0 -39 18.5 -55.5t52.5 -16.5z" />
    <glyph glyph-name="nine" unicode="9" horiz-adv-x="563" 
d="M269 -6q-63 0 -108 17.5t-73.5 45.5t-41.5 61t-13 64q0 36 18 49.5t55 13.5q32 0 56.5 -11t24.5 -46q0 -19 12 -32t31.5 -19.5t43.5 -6.5q44 0 69 24t25 76v90q-24 -26 -56.5 -35t-68.5 -9q-57 0 -105 19t-76.5 65t-28.5 126v9q0 86 32.5 138t88 75t124.5 23t125 -23
t88.5 -75t32.5 -138v-265q0 -86 -34 -138t-91.5 -75t-129.5 -23zM279 396q41 0 65 21.5t24 70.5v18q0 52 -24 75.5t-66 23.5t-65.5 -23.5t-23.5 -75.5v-9q0 -55 23.5 -78t66.5 -23z" />
    <glyph glyph-name="colon" unicode=":" horiz-adv-x="225" 
d="M113 268q-33 0 -55 23t-22 54q0 32 22 54.5t55 22.5q31 0 53.5 -22.5t22.5 -54.5q0 -31 -22.5 -54t-53.5 -23zM113 -6q-33 0 -55 23t-22 54q0 32 22 54.5t55 22.5q31 0 53.5 -22.5t22.5 -54.5q0 -31 -22.5 -54t-53.5 -23z" />
    <glyph glyph-name="semicolon" unicode=";" horiz-adv-x="225" 
d="M94 -106q-16 0 -33 10t-17 29q0 8 4 16l25 54q-18 11 -29 28.5t-11 39.5q0 32 22.5 54.5t53.5 22.5q32 0 54.5 -22.5t22.5 -53.5q0 -4 -1.5 -11t-7.5 -22t-18.5 -45.5t-34.5 -81.5q-4 -10 -13 -14t-17 -4zM116 268q-33 0 -55 23t-22 54q0 32 22 54.5t55 22.5
q31 0 53.5 -22.5t22.5 -54.5q0 -31 -22.5 -54t-53.5 -23z" />
    <glyph glyph-name="less" unicode="&#x3c;" horiz-adv-x="427" 
d="M323 51q-13 0 -19 5l-254 165q-17 11 -24 27t-7 29t7 29t24 27l254 165q6 5 19 5q23 0 45.5 -21t22.5 -52q0 -28 -18 -39l-176 -114l176 -114q18 -11 18 -39q0 -31 -22.5 -52t-45.5 -21z" />
    <glyph glyph-name="equal" unicode="=" horiz-adv-x="448" 
d="M94 315q-21 0 -34 17.5t-13 45.5q0 27 13 45.5t34 18.5h260q18 0 33 -18.5t15 -45.5q0 -28 -15 -45.5t-33 -17.5h-260zM94 112q-21 0 -34 17.5t-13 45.5q0 27 13 45.5t34 18.5h260q18 0 33 -18.5t15 -45.5q0 -28 -15 -45.5t-33 -17.5h-260z" />
    <glyph glyph-name="greater" unicode="&#x3e;" horiz-adv-x="427" 
d="M104 51q-22 0 -45 21t-23 52q0 28 18 39l176 114l-176 114q-18 11 -18 39q0 31 23 52t45 21q13 0 19 -5l254 -165q17 -11 24 -27t7 -29t-7 -29t-24 -27l-254 -165q-6 -5 -19 -5z" />
    <glyph glyph-name="question" unicode="?" horiz-adv-x="453" 
d="M203 217q-31 0 -43 14t-12 53q0 43 10.5 72t26.5 48.5t30 31.5q12 11 27.5 22t29.5 24.5t23 30t9 36.5q0 35 -26 51.5t-64 16.5t-57 -11.5t-28 -27t-19 -27t-30 -11.5t-40 14t-20 43q0 27 21 58.5t65 53.5t111 22q64 0 112 -21.5t74.5 -59t26.5 -84.5q0 -35 -13.5 -65
t-32.5 -54t-37.5 -40t-28.5 -24q-27 -21 -39 -40t-14.5 -39t-2.5 -46q0 -14 -11 -27.5t-48 -13.5zM204 -6q-32 0 -54 23t-22 54q0 32 22.5 54.5t53.5 22.5q32 0 54.5 -22.5t22.5 -54.5q0 -31 -22.5 -54t-54.5 -23z" />
    <glyph glyph-name="at" unicode="@" horiz-adv-x="753" 
d="M340 -143q-59 0 -114 21.5t-98 65t-68 109t-25 153.5q0 104 38.5 187.5t117 132.5t197.5 49q108 0 184.5 -41t117 -116.5t40.5 -177.5q0 -65 -17.5 -118.5t-52.5 -85.5t-89 -32q-45 0 -73.5 21.5t-34.5 54.5q-24 -32 -54.5 -52.5t-71.5 -20.5q-29 0 -58 12.5t-48 39
t-19 66.5q0 48 27 75.5t73 39.5t103 12h27v13q0 32 -18 48t-56 16q-29 0 -48 -7t-30.5 -14t-20.5 -7q-10 0 -18 10.5t-12.5 24t-4.5 22.5q0 21 22.5 37.5t56.5 26.5t70 10q43 0 81.5 -15t63 -45t24.5 -76v-171q5 -28 11 -37.5t17 -9.5q19 0 30 15t16 37t6.5 45.5t1.5 39.5
q0 134 -58.5 205t-186.5 71q-75 0 -125 -22.5t-78.5 -62.5t-41 -91t-12.5 -108q0 -53 11 -101t36.5 -85t69.5 -58.5t110 -21.5q39 0 63 6t39.5 12t26.5 6q19 0 28 -16.5t9 -27.5q0 -18 -20 -30.5t-50.5 -20t-61.5 -10.5t-53 -3zM368 86q19 0 37 12t30.5 30.5t12.5 39.5v22
h-18q-31 0 -52.5 -7t-32.5 -21t-11 -35q0 -19 9 -30t25 -11z" />
    <glyph glyph-name="A" unicode="A" horiz-adv-x="589" 
d="M104 0q-21 0 -44.5 8.5t-39.5 23t-16 32.5q0 3 2 11l186 610q8 26 38 39t64 13q35 0 64.5 -13t37.5 -39l187 -610q2 -8 2 -11q0 -18 -16 -32.5t-39 -23t-45 -8.5q-19 0 -32.5 6.5t-18.5 22.5l-34 125h-211l-34 -125q-4 -16 -18 -22.5t-33 -6.5zM221 274h146l-73 268z" />
    <glyph glyph-name="B" unicode="B" horiz-adv-x="572" 
d="M122 0q-31 0 -49.5 14t-18.5 33v636q0 24 21.5 36t46.5 12h205q50 0 96 -15t75 -53.5t29 -109.5q0 -61 -22.5 -100.5t-62.5 -56.5q31 -11 54 -29.5t36 -49.5t13 -81v-21q0 -79 -26.5 -126t-72 -68t-102.5 -21h-222zM209 136h100q38 0 59 22t21 70v16q0 51 -21 71.5
t-59 20.5h-100v-200zM209 456h105q29 0 43 22t14 47q0 18 -6.5 34t-19 26t-31.5 10h-105v-139z" />
    <glyph glyph-name="C" unicode="C" horiz-adv-x="562" 
d="M286 -6q-65 0 -120 23t-87.5 75t-32.5 138v265q0 86 32.5 138t87.5 75t120 23q72 0 128.5 -23.5t89.5 -67.5t33 -108q0 -45 -19 -59.5t-59 -14.5q-31 0 -53.5 10t-24.5 37q0 10 -2.5 25t-10.5 30t-26 25t-50 10q-43 0 -66.5 -24.5t-23.5 -75.5v-265q0 -51 24 -75.5
t67 -24.5q30 0 47.5 10t25.5 25.5t11 32.5t4 32q2 28 24.5 37.5t52.5 9.5q41 0 60 -14.5t19 -59.5q0 -66 -33 -113t-89.5 -71.5t-128.5 -24.5z" />
    <glyph glyph-name="D" unicode="D" horiz-adv-x="590" 
d="M122 0q-31 0 -49.5 14t-18.5 33v637q0 19 18.5 33t49.5 14h177q69 0 125 -23t88.5 -75t32.5 -138v-259q0 -86 -32.5 -138t-88.5 -75t-125 -23h-177zM210 136h89q42 0 66 24.5t24 75.5v259q0 51 -24 75.5t-66 24.5h-89v-459z" />
    <glyph glyph-name="E" unicode="E" horiz-adv-x="539" 
d="M122 0q-25 0 -46.5 12t-21.5 36v635q0 24 21.5 36t46.5 12h356q25 0 36 -21.5t11 -45.5q0 -28 -12 -48.5t-35 -20.5h-268v-169h150q23 0 35 -18.5t12 -42.5q0 -20 -11 -39.5t-36 -19.5h-150v-170h268q23 0 35 -20.5t12 -48.5q0 -24 -11 -45.5t-36 -21.5h-356z" />
    <glyph glyph-name="F" unicode="F" horiz-adv-x="515" 
d="M132 0q-29 0 -53.5 12t-24.5 36v635q0 24 21.5 36t46.5 12h347q25 0 36 -21.5t11 -45.5q0 -28 -12 -48.5t-35 -20.5h-259v-169h151q23 0 35 -18.5t12 -42.5q0 -20 -11 -39.5t-36 -19.5h-151v-258q0 -24 -24.5 -36t-53.5 -12z" />
    <glyph glyph-name="G" unicode="G" horiz-adv-x="573" 
d="M291 -6q-69 0 -124.5 23t-88 75t-32.5 138v265q0 86 32.5 138t87.5 75t120 23q72 0 128.5 -23.5t89.5 -67.5t33 -108q0 -45 -19 -59.5t-59 -14.5q-31 0 -54 10t-24 37q0 18 -4.5 39t-23 36t-61.5 15t-66.5 -24.5t-23.5 -75.5v-265q0 -51 23.5 -75.5t65.5 -24.5t66 24.5
t24 75.5v34h-59q-22 0 -34.5 18.5t-12.5 41.5q0 22 12.5 41t34.5 19h168q23 0 35 -14.5t12 -34.5v-105q0 -86 -32.5 -138t-88.5 -75t-125 -23z" />
    <glyph glyph-name="H" unicode="H" horiz-adv-x="619" 
d="M132 0q-29 0 -53.5 12t-24.5 36v636q0 25 24.5 36t53.5 11t53.5 -11t24.5 -36v-245h199v245q0 25 24.5 36t53.5 11t53.5 -11t24.5 -36v-636q0 -24 -24.5 -36t-53.5 -12t-53.5 12t-24.5 36v271h-199v-271q0 -24 -24.5 -36t-53.5 -12z" />
    <glyph glyph-name="I" unicode="I" horiz-adv-x="264" 
d="M132 0q-29 0 -53.5 12t-24.5 36v636q0 25 24.5 36t53.5 11t53.5 -11t24.5 -36v-636q0 -24 -24.5 -36t-53.5 -12z" />
    <glyph glyph-name="J" unicode="J" horiz-adv-x="548" 
d="M257 -6q-71 0 -128 24.5t-90 71.5t-33 113q0 45 19.5 59.5t59.5 14.5q30 0 52.5 -9.5t24.5 -37.5q2 -19 7 -42.5t23 -40.5t58 -17q44 0 67.5 24.5t23.5 75.5v365h-87q-22 0 -34.5 20.5t-12.5 48.5q0 24 11 45.5t36 21.5h175q26 0 47 -12t21 -36v-453q0 -86 -32.5 -138
t-87 -75t-120.5 -23z" />
    <glyph glyph-name="K" unicode="K" horiz-adv-x="566" 
d="M132 0q-29 0 -53.5 12t-24.5 36v636q0 25 24.5 36t53.5 11t53.5 -11t24.5 -36v-240l187 265q15 22 41 22q20 0 41.5 -12t36 -30t14.5 -38q0 -6 -2 -14t-8 -16l-164 -206l207 -317q8 -13 8 -26q0 -19 -14 -37t-35.5 -29.5t-44.5 -11.5q-16 0 -30 6.5t-24 22.5l-171 260
l-42 -54v-181q0 -24 -24.5 -36t-53.5 -12z" />
    <glyph glyph-name="L" unicode="L" horiz-adv-x="492" 
d="M122 0q-25 0 -46.5 12t-21.5 36v636q0 25 24.5 36t53.5 11t53.5 -11t24.5 -36v-548h228q23 0 34 -21t11 -47q0 -25 -11 -46.5t-34 -21.5h-316z" />
    <glyph glyph-name="M" unicode="M" horiz-adv-x="712" 
d="M132 0q-29 0 -53.5 12t-24.5 36v605q0 43 24.5 60.5t53.5 17.5q28 0 47.5 -4.5t36.5 -21t37 -52.5l103 -180l103 180q21 36 37.5 52.5t36 21t47.5 4.5q30 0 54 -17.5t24 -60.5v-605q0 -24 -24.5 -36t-53.5 -12t-53.5 12t-24.5 36v375l-96 -164q-10 -16 -24 -22.5
t-28 -6.5q-13 0 -26.5 6t-22.5 23l-95 174v-385q0 -24 -24.5 -36t-53.5 -12z" />
    <glyph glyph-name="N" unicode="N" horiz-adv-x="619" 
d="M132 0q-29 0 -53.5 12t-24.5 36v635q0 25 24.5 36.5t53.5 11.5q28 0 46.5 -4.5t34 -20.5t34.5 -53l162 -309v340q0 25 24.5 36t53.5 11t53.5 -11t24.5 -36v-636q0 -24 -24.5 -36t-53.5 -12q-27 0 -50 8t-37 34l-190 346v-340q0 -24 -24.5 -36t-53.5 -12z" />
    <glyph glyph-name="O" unicode="O" horiz-adv-x="583" 
d="M291 -6q-69 0 -124.5 23t-88 75t-32.5 138v265q0 86 32.5 138t88 75t124.5 23t125 -23t88.5 -75t32.5 -138v-265q0 -86 -32.5 -138t-88.5 -75t-125 -23zM291 130q42 0 66 24t24 76v265q0 52 -24 76t-66 24t-65.5 -24t-23.5 -76v-265q0 -52 23.5 -76t65.5 -24z" />
    <glyph glyph-name="P" unicode="P" horiz-adv-x="569" 
d="M132 0q-29 0 -53.5 12t-24.5 36v636q0 19 16 33t42 14h207q66 0 119.5 -22.5t85 -73t31.5 -134.5v-5q0 -84 -32.5 -135t-88.5 -74t-125 -23h-99v-216q0 -24 -24.5 -36t-53.5 -12zM210 384h99q42 0 66 24.5t24 75.5v11q0 51 -24 75.5t-66 24.5h-99v-211z" />
    <glyph glyph-name="Q" unicode="Q" horiz-adv-x="583" 
d="M291 -109q-18 0 -33 12t-15 36v58q-57 7 -101.5 33t-70 75t-25.5 125v265q0 87 32.5 138.5t88 74.5t124.5 23t125 -23t88.5 -74.5t32.5 -138.5v-265q0 -76 -25.5 -125t-70.5 -75t-102 -33v-58q0 -24 -15 -36t-33 -12zM243 140v44q0 25 15 36t33 11t33 -11t15 -36v-44
q20 11 31 33.5t11 56.5v265q0 51 -24 75.5t-66 24.5t-65.5 -24.5t-23.5 -75.5v-265q0 -34 10.5 -56.5t30.5 -33.5z" />
    <glyph glyph-name="R" unicode="R" horiz-adv-x="584" 
d="M463 -6q-15 0 -28.5 6.5t-21.5 22.5l-137 266h-66v-241q0 -24 -24.5 -36t-53.5 -12t-53.5 12t-24.5 36v636q0 19 13 33t35 14h207q69 0 124.5 -19.5t88.5 -66t33 -128.5q0 -56 -15.5 -96.5t-43 -66.5t-62.5 -40l122 -221q3 -4 4 -9t1 -9q0 -19 -15 -38t-37.5 -31
t-45.5 -12zM210 409h99q42 0 66 20.5t24 72.5q0 53 -24 73t-66 20h-99v-186z" />
    <glyph glyph-name="S" unicode="S" horiz-adv-x="533" 
d="M260 -10q-65 0 -120 19t-88 48.5t-33 62.5q0 17 9 36.5t24.5 33.5t34.5 14q18 0 33.5 -11t34 -26t43 -26t59.5 -11q23 0 45.5 6.5t37 21t14.5 38.5q0 26 -17 44.5t-45.5 33.5t-62 30.5t-67.5 34t-62.5 44t-45.5 61.5t-17 86q0 56 22 95.5t59 64t82.5 36t92.5 11.5
q20 0 53 -3t66.5 -12t56.5 -26.5t23 -46.5q0 -13 -6.5 -32.5t-20 -34.5t-35.5 -15q-18 0 -33.5 9.5t-39 19t-64.5 9.5q-35 0 -57.5 -8.5t-32.5 -22t-10 -29.5q0 -21 17 -36.5t45.5 -29t62 -28t67.5 -34t62.5 -46.5t45.5 -66t17 -93q0 -72 -32.5 -121.5t-88.5 -75t-129 -25.5
z" />
    <glyph glyph-name="T" unicode="T" horiz-adv-x="542" 
d="M271 0q-29 0 -53.5 12t-24.5 36v543h-138q-22 0 -34.5 21.5t-12.5 49.5q0 25 11 47t36 22h432q25 0 36 -22t11 -47q0 -28 -12 -49.5t-35 -21.5h-138v-543q0 -24 -24.5 -36t-53.5 -12z" />
    <glyph glyph-name="U" unicode="U" horiz-adv-x="606" 
d="M303 -6q-71 0 -128 23t-90.5 75t-33.5 138v454q0 25 24 36t54 11q29 0 53.5 -11t24.5 -36v-454q0 -51 25.5 -75.5t70.5 -24.5t70.5 24.5t25.5 75.5v454q0 25 24 36t54 11q29 0 53.5 -11t24.5 -36v-454q0 -86 -33.5 -138t-90.5 -75t-128 -23z" />
    <glyph glyph-name="V" unicode="V" horiz-adv-x="589" 
d="M295 -6q-34 0 -64 13t-38 39l-187 610q-2 8 -2 11q0 19 16 33t39.5 22.5t44.5 8.5q19 0 33 -6.5t18 -22.5l140 -513l139 513q5 16 18.5 22.5t32.5 6.5q22 0 45 -8.5t39 -22.5t16 -33q0 -2 -0.5 -5t-1.5 -6l-186 -610q-8 -26 -37.5 -39t-64.5 -13z" />
    <glyph glyph-name="W" unicode="W" horiz-adv-x="920" 
d="M307 -6q-34 0 -64.5 13t-38.5 39l-199 610q-2 6 -2 13q0 17 16 31t39.5 22.5t45.5 8.5q18 0 32 -6.5t18 -22.5l152 -513l79 338q5 20 27.5 30.5t47.5 10.5q26 0 48.5 -10.5t26.5 -30.5l79 -338l152 513q5 16 18.5 22.5t31.5 6.5q23 0 46 -8.5t39 -22.5t16 -31
q0 -7 -2 -13l-199 -610q-9 -26 -38.5 -39t-64.5 -13q-34 0 -64.5 13t-36.5 39l-52 237l-52 -237q-6 -26 -36.5 -39t-64.5 -13z" />
    <glyph glyph-name="X" unicode="X" horiz-adv-x="590" 
d="M112 -6q-21 0 -45.5 10.5t-41.5 28t-17 38.5q0 13 9 28l173 267l-166 266q-10 16 -10 31q0 21 16 38t39.5 26.5t45.5 9.5q17 0 28.5 -6t18.5 -20l133 -232l133 232q8 14 19.5 20t27.5 6q22 0 45.5 -9.5t39.5 -26.5t16 -38q0 -15 -10 -31l-166 -266l173 -267q9 -15 9 -28
q0 -21 -17 -38.5t-41 -28t-46 -10.5q-12 0 -22 4t-15 12l-146 248l-146 -248q-5 -8 -15 -12t-22 -4z" />
    <glyph glyph-name="Y" unicode="Y" horiz-adv-x="590" 
d="M295 0q-29 0 -53.5 12t-24.5 36v251q0 8 -4 14l-207 343q-1 3 -1.5 6t-0.5 5q0 19 17.5 33t42.5 22.5t46 8.5q19 0 28 -7.5t17 -21.5l140 -257l139 257q8 14 17 21.5t28 7.5q22 0 46.5 -8.5t42 -22.5t17.5 -33v-5t-2 -6l-206 -343q-4 -6 -4 -14v-251q0 -24 -24.5 -36
t-53.5 -12z" />
    <glyph glyph-name="Z" unicode="Z" horiz-adv-x="536" 
d="M54 0q-24 0 -34.5 11.5t-10.5 29.5q0 26 17 55l282 499h-232q-22 0 -34.5 20.5t-12.5 47.5q0 25 11 46.5t36 21.5h386q23 0 34 -11.5t11 -29.5q0 -24 -17 -55l-282 -499h272q23 0 35 -22t12 -46t-12 -46t-35 -22h-426z" />
    <glyph glyph-name="bracketleft" unicode="[" horiz-adv-x="355" 
d="M118 -21q-25 0 -46.5 12t-21.5 36v693q0 24 21.5 36t46.5 12h176q25 0 36 -21.5t11 -45.5q0 -28 -12 -48.5t-35 -20.5h-88v-517h88q23 0 35 -20.5t12 -48.5q0 -24 -11 -45.5t-36 -21.5h-176z" />
    <glyph glyph-name="backslash" unicode="\" horiz-adv-x="382" 
d="M307 -1q-16 0 -28.5 9t-17.5 23l-240 658q-3 8 -3 15q0 20 17 35.5t41 15.5q14 0 26.5 -7t18.5 -23l240 -658q2 -4 2 -7v-7q0 -20 -16.5 -37t-39.5 -17z" />
    <glyph glyph-name="bracketright" unicode="]" horiz-adv-x="355" 
d="M61 -21q-25 0 -36 21.5t-11 45.5q0 28 12.5 48.5t34.5 20.5h88v517h-88q-22 0 -34.5 20.5t-12.5 48.5q0 24 11 45.5t36 21.5h176q26 0 47 -12t21 -36v-693q0 -24 -21 -36t-47 -12h-176z" />
    <glyph glyph-name="asciicircum" unicode="^" horiz-adv-x="292" 
d="M31 569q-13 0 -22 14.5t-9 31.5q0 13 6 25t19 19l104 56q10 5 17 5t17 -5l104 -56q14 -7 19.5 -19t5.5 -25q0 -17 -8.5 -31.5t-22.5 -14.5q-2 0 -5 1l-6 2l-104 56l-104 -56l-6 -2t-5 -1z" />
    <glyph glyph-name="underscore" unicode="_" horiz-adv-x="306" 
d="M-7 -127q-21 0 -34 17.5t-13 45.5q0 27 13 45.5t34 18.5h320q18 0 33 -18.5t15 -45.5q0 -28 -15 -45.5t-33 -17.5h-320z" />
    <glyph glyph-name="grave" unicode="`" horiz-adv-x="221" 
d="M175 559q-4 0 -7.5 1.5t-7.5 2.5l-140 65q-20 10 -20 34q0 20 13.5 39t33.5 19q7 0 14 -3l140 -65q20 -10 20 -35q0 -19 -13 -38.5t-33 -19.5z" />
    <glyph glyph-name="a" unicode="a" horiz-adv-x="484" 
d="M146 -10q-52 0 -90 32.5t-38 100.5q0 59 30 92t82.5 46t121.5 13h36v10q0 17 -7 34t-23 28.5t-45 11.5q-41 0 -61 -8t-31 -16.5t-25 -8.5q-25 0 -38.5 25t-13.5 52q0 24 27.5 42t67 28t76.5 10q82 0 132 -28t73 -72.5t23 -95.5v-238q0 -20 -21.5 -34t-54.5 -14
q-29 0 -49 14t-20 34v22q-27 -31 -63 -55.5t-89 -24.5zM213 103q16 0 33 12.5t29.5 33.5t12.5 46v4h-4q-28 0 -53.5 -3.5t-41 -15t-15.5 -35.5q0 -22 11 -32t28 -10z" />
    <glyph glyph-name="b" unicode="b" horiz-adv-x="533" 
d="M331 -10q-48 0 -86.5 24.5t-53.5 55.5v-22q0 -18 -20 -33t-49 -15q-33 0 -54.5 15t-21.5 33v653q0 21 21.5 34t54.5 13t56 -13t23 -34v-295q16 29 48.5 52.5t78.5 23.5q49 0 89 -28.5t64 -76t24 -105.5v-70q0 -55 -24 -103.5t-63.5 -78.5t-86.5 -30zM278 125
q20 0 36.5 11t26 29t9.5 37v70q0 19 -9.5 36t-26 28t-37.5 11q-18 0 -35.5 -9t-29 -25.5t-11.5 -40.5v-83q0 -8 10.5 -23.5t28 -28t38.5 -12.5z" />
    <glyph glyph-name="c" unicode="c" horiz-adv-x="442" 
d="M255 -10q-79 0 -129.5 28t-74 76t-23.5 108v68q0 60 23.5 108t73.5 76t128 28q49 0 87 -11.5t60 -30.5t22 -41q0 -14 -7.5 -32t-21 -31t-31.5 -13q-12 0 -23.5 6t-28.5 12t-44 6q-45 0 -64 -20t-19 -57v-68q0 -37 19 -57t65 -20q27 0 43 7t27.5 13.5t24.5 6.5
q21 0 36 -12t22.5 -29.5t7.5 -32.5q0 -22 -23 -42.5t-62 -33t-88 -12.5z" />
    <glyph glyph-name="d" unicode="d" horiz-adv-x="533" 
d="M202 -10q-46 0 -86 30t-64 78.5t-24 103.5v70q0 58 24 105.5t64 76t89 28.5q46 0 78.5 -23.5t48.5 -52.5v295q0 21 23 34t56 13t54.5 -13t21.5 -34v-653q0 -18 -21.5 -33t-54.5 -15q-28 0 -48.5 15t-20.5 33v22q-15 -31 -53.5 -55.5t-86.5 -24.5zM255 125q22 0 39 12.5
t27.5 28t10.5 23.5v83q0 24 -11.5 40.5t-29 25.5t-35.5 9q-20 0 -37 -11t-26.5 -28t-9.5 -36v-70q0 -19 9.5 -37t26 -29t36.5 -11z" />
    <glyph glyph-name="e" unicode="e" horiz-adv-x="496" 
d="M280 -10q-74 0 -131 26.5t-89.5 74.5t-32.5 111v73q0 56 31 103t83 75.5t116 28.5q58 0 106.5 -24t78.5 -66.5t30 -99.5q0 -45 -14.5 -64.5t-37 -24t-45.5 -4.5h-193v-6q0 -37 28 -59.5t74 -22.5q31 0 53 9.5t39 18.5t33 9q18 0 31 -12t19.5 -28t6.5 -28q0 -19 -23 -40
t-64.5 -35.5t-98.5 -14.5zM182 286h124q11 0 16 5t5 19q0 20 -10.5 33.5t-27 20t-35.5 6.5q-18 0 -34.5 -6.5t-27 -20t-10.5 -33.5v-24z" />
    <glyph glyph-name="f" unicode="f" horiz-adv-x="354" 
d="M122 0q-32 0 -54 13t-22 34v500q0 58 24 103.5t64 71.5t88 26h72q29 0 43.5 -20.5t14.5 -44.5q0 -25 -14.5 -45t-43.5 -20h-38q-16 0 -28.5 -6t-19.5 -17.5t-7 -30.5v-88h113q19 0 28.5 -17.5t9.5 -37.5q0 -21 -9.5 -38t-28.5 -17h-113v-319q0 -21 -23.5 -34t-55.5 -13z
" />
    <glyph glyph-name="g" unicode="g" horiz-adv-x="478" 
d="M240 -217q-59 0 -111.5 17t-84.5 49.5t-32 78.5q0 36 19 62t48 42q-16 10 -26 25t-10 37q0 28 14.5 46.5t36.5 34.5q-31 23 -48 55.5t-17 71.5v15q0 49 25.5 86t72 58t107.5 21q32 0 61 -6.5t52 -17.5q18 44 31 57t26 13q28 0 43.5 -16t15.5 -30q0 -8 -4 -15.5t-12 -14.5
q-9 -8 -20.5 -16.5t-22.5 -19.5q19 -20 28.5 -45t9.5 -54v-15q0 -48 -26.5 -85.5t-73.5 -59.5t-108 -22q-33 0 -60 6q-2 -4 -3 -7t-1 -6q0 -14 21.5 -20t55 -10t71.5 -11t71.5 -22t55 -43.5t21.5 -75.5q0 -59 -33.5 -95t-85 -52t-107.5 -16zM237 -119q30 0 54.5 16.5
t24.5 44.5q0 17 -9.5 28t-26 17.5t-38 10t-44.5 6.5q-20 -10 -30 -26t-10 -34q0 -31 24.5 -47t54.5 -16zM236 225q26 0 41 21.5t15 55.5v15q0 31 -14.5 53t-42.5 22q-27 0 -41.5 -22t-14.5 -53v-14q0 -33 14.5 -55.5t42.5 -22.5z" />
    <glyph glyph-name="h" unicode="h" horiz-adv-x="535" 
d="M123 0q-34 0 -55.5 15t-21.5 33v653q0 21 21.5 34t55.5 13q32 0 55 -13t23 -34v-295q14 29 46 52.5t78 23.5t84.5 -28.5t62 -76t23.5 -105.5v-224q0 -24 -24.5 -36t-53.5 -12q-27 0 -52 12t-25 36v224q0 19 -10 36t-26 28t-36 11q-16 0 -31.5 -9t-25.5 -25.5t-10 -40.5
v-224q0 -18 -23 -33t-55 -15z" />
    <glyph glyph-name="i" unicode="i" horiz-adv-x="244" 
d="M122 568q-34 0 -58 22t-24 50q0 29 24 50t58 21t57.5 -21t23.5 -50q0 -28 -23.5 -50t-57.5 -22zM122 0q-34 0 -55.5 15t-21.5 33v381q0 21 21.5 34t55.5 13q32 0 55 -13t23 -34v-381q0 -18 -23 -33t-55 -15z" />
    <glyph glyph-name="j" unicode="j" horiz-adv-x="245" 
d="M41 -217q-49 0 -65 20t-16 43q0 31 17 49t41 18q12 0 18 7.5t7.5 21t1.5 30.5v457q0 21 21.5 34t54.5 13t56 -13t23 -34v-457q0 -55 -18.5 -98t-54 -67t-86.5 -24zM122 568q-34 0 -58 22t-24 50q0 29 24 50t58 21t57.5 -21t23.5 -50q0 -28 -23.5 -50t-57.5 -22z" />
    <glyph glyph-name="k" unicode="k" horiz-adv-x="509" 
d="M122 0q-33 0 -54.5 15t-21.5 33v653q0 21 21.5 34t54.5 13t56 -13t23 -34v-392l166 161q12 12 30 12q17 0 34.5 -11.5t29 -28.5t11.5 -34q0 -7 -3 -14t-9 -13l-106 -98l137 -192q8 -13 8 -24q0 -18 -14.5 -36t-35 -29.5t-39.5 -11.5q-24 0 -37 19l-121 179l-51 -47v-93
q0 -18 -23 -33t-56 -15z" />
    <glyph glyph-name="l" unicode="l" horiz-adv-x="263" 
d="M131 0q-34 0 -55.5 15t-21.5 33v653q0 21 21.5 34t55.5 13q32 0 55 -13t23 -34v-653q0 -18 -23 -33t-55 -15z" />
    <glyph glyph-name="m" unicode="m" horiz-adv-x="813" 
d="M122 0q-34 0 -55.5 15t-21.5 33v381q0 21 21.5 34t55.5 13q28 0 48 -13t20 -34v-23q17 29 50 52.5t82 23.5q41 0 72 -28t46 -72q26 51 66.5 75.5t83.5 24.5q47 0 88.5 -24.5t67.5 -71.5t26 -114v-224q0 -18 -23 -33t-55 -15q-31 0 -54 15t-23 33v224q0 25 -9.5 42
t-25 25.5t-32.5 8.5q-16 0 -30.5 -8.5t-24 -25t-9.5 -42.5v-225q0 -25 -24.5 -36t-53.5 -11q-27 0 -52 11t-25 36v224q0 25 -10 42t-25.5 25.5t-32.5 8.5q-16 0 -30.5 -8t-23.5 -24.5t-9 -42.5v-224q0 -18 -23 -33t-55 -15z" />
    <glyph glyph-name="n" unicode="n" horiz-adv-x="534" 
d="M122 0q-34 0 -55.5 15t-21.5 33v381q0 21 21.5 34t55.5 13q28 0 48 -13t20 -34v-23q14 29 49 52.5t85 23.5q46 0 84.5 -28.5t62 -76t23.5 -105.5v-224q0 -24 -24.5 -36t-53.5 -12q-27 0 -52 12t-25 36v224q0 19 -9.5 36t-26 28t-36.5 11q-16 0 -31.5 -9t-25.5 -25.5
t-10 -40.5v-224q0 -18 -23 -33t-55 -15z" />
    <glyph glyph-name="o" unicode="o" horiz-adv-x="509" 
d="M254 -10q-61 0 -112.5 29.5t-83 78t-31.5 104.5v70q0 56 30.5 104t82.5 77t114 29q61 0 113 -28.5t83.5 -76t31.5 -105.5v-70q0 -55 -31.5 -103.5t-83.5 -78.5t-113 -30zM254 125q20 0 36.5 11t26.5 28.5t10 37.5v70q0 19 -10 36t-26.5 28t-36.5 11t-36.5 -11t-26 -28
t-9.5 -36v-70q0 -20 9.5 -37.5t26 -28.5t36.5 -11z" />
    <glyph glyph-name="p" unicode="p" horiz-adv-x="533" 
d="M122 -217q-33 0 -54.5 15t-21.5 33v598q0 21 21.5 34t52.5 13t51 -13t20 -34v-23q17 29 52.5 52.5t82.5 23.5q51 0 91.5 -28.5t64 -76t23.5 -105.5v-70q0 -55 -24 -103.5t-63.5 -78.5t-86.5 -30q-44 0 -80 24.5t-50 55.5v-239q0 -18 -23 -33t-56 -15zM276 125
q20 0 36.5 11t27 29t10.5 37v70q0 19 -10 36t-27.5 28t-38.5 11q-18 0 -34.5 -9t-27.5 -25.5t-11 -40.5v-83q0 -8 9.5 -23.5t26.5 -28t39 -12.5z" />
    <glyph glyph-name="q" unicode="q" horiz-adv-x="533" 
d="M411 -217q-33 0 -56 15t-23 33v239q-14 -31 -50 -55.5t-80 -24.5q-46 0 -86 30t-64 78.5t-24 103.5v70q0 58 23.5 105.5t64.5 76t91 28.5q47 0 82.5 -23.5t52.5 -52.5v23q0 21 20 34t51 13t52.5 -13t21.5 -34v-598q0 -18 -21.5 -33t-54.5 -15zM257 125q22 0 39 12.5
t26.5 28t9.5 23.5v83q0 24 -10.5 40.5t-27.5 25.5t-35 9q-21 0 -38.5 -11t-27.5 -28t-10 -36v-70q0 -19 10.5 -37t27.5 -29t36 -11z" />
    <glyph glyph-name="r" unicode="r" horiz-adv-x="394" 
d="M121 0q-33 0 -54.5 15t-21.5 33v381q0 21 21.5 34t54.5 13q29 0 49 -13t20 -34v-37q10 22 28.5 42.5t42 34t48.5 13.5h29q22 0 38.5 -20t16.5 -47q0 -28 -16.5 -48t-38.5 -20h-29q-27 0 -52 -18.5t-41 -51.5t-16 -79v-150q0 -18 -23 -33t-56 -15z" />
    <glyph glyph-name="s" unicode="s" horiz-adv-x="429" 
d="M211 -10q-52 0 -95.5 13t-69 34t-25.5 45q0 12 6.5 28t18 28t26.5 12q16 0 32 -11.5t39.5 -22.5t63.5 -11t51 11.5t11 21.5q0 17 -17 26.5t-43.5 16t-56.5 15t-56.5 23.5t-43.5 41t-17 68q0 37 17.5 72.5t58.5 58.5t112 23q44 0 82.5 -9t63 -25.5t24.5 -37.5
q0 -10 -6.5 -27.5t-19 -31.5t-30.5 -14q-13 0 -29 7.5t-36 15t-47 7.5q-20 0 -32.5 -5t-18.5 -12t-6 -15q0 -14 17 -21.5t44 -14t57 -15t57 -25t44 -44t17 -71.5q0 -70 -49.5 -112t-143.5 -42z" />
    <glyph glyph-name="t" unicode="t" horiz-adv-x="364" 
d="M239 0q-95 0 -145.5 40.5t-50.5 128.5v467q0 21 25 34t52 13q29 0 53.5 -13t24.5 -34v-160h113q19 0 28.5 -17.5t9.5 -37.5q0 -21 -9.5 -38t-28.5 -17h-113v-197q0 -22 9 -30.5t32 -8.5h43q34 0 50 -20.5t16 -44.5q0 -25 -16 -45t-50 -20h-43z" />
    <glyph glyph-name="u" unicode="u" horiz-adv-x="535" 
d="M268 -10q-62 0 -114 29.5t-83 77.5t-31 103v228q0 18 23 33t55 15q31 0 54 -15t23 -33v-228q0 -19 10 -36t26.5 -28t36.5 -11t36.5 11t26 28t9.5 36v229q0 19 23.5 33t54.5 14q34 0 55.5 -14t21.5 -33v-229q0 -56 -31 -104t-82.5 -77t-113.5 -29z" />
    <glyph glyph-name="v" unicode="v" horiz-adv-x="503" 
d="M252 -13q-23 0 -43.5 7t-26.5 20l-176 385q-2 4 -3.5 9.5t-1.5 9.5q0 18 18 33t42.5 23.5t44.5 8.5q14 0 26 -5.5t17 -19.5l103 -261l103 261q5 14 16.5 19.5t25.5 5.5q16 0 41 -9t44.5 -24t19.5 -33q0 -5 -1 -9t-3 -9l-176 -385q-6 -13 -26.5 -20t-43.5 -7z" />
    <glyph glyph-name="w" unicode="w" horiz-adv-x="702" 
d="M220 -13q-19 0 -36 6t-23 21l-154 385q-3 8 -4 12.5t-1 8.5q0 18 17 32t41 22t44 8q15 0 27 -5.5t16 -18.5l89 -254l64 215q6 20 20 25t31 5t31 -5t20 -25l64 -215l89 254q8 24 42 24q19 0 43 -8t41.5 -22.5t17.5 -33.5q0 -4 -1 -9t-3 -10l-154 -385q-6 -15 -23 -21
t-37 -6q-22 0 -40.5 7t-23.5 20l-66 174l-66 -174q-4 -13 -23 -20t-42 -7z" />
    <glyph glyph-name="x" unicode="x" horiz-adv-x="493" 
d="M118 -10q-16 0 -39.5 11.5t-42 29.5t-18.5 36q0 13 9 26l113 150l-102 136q-3 4 -6.5 11t-3.5 14q0 18 18 36t42.5 30t44.5 12q5 0 15.5 -2.5t17.5 -13.5l80 -131l81 130q6 10 16.5 13.5t18.5 3.5q18 0 42.5 -12t42.5 -30t18 -36q0 -11 -10 -25l-103 -137l114 -149
q3 -4 6 -11t3 -15q0 -16 -17 -34t-40.5 -30.5t-44.5 -12.5q-9 0 -19 3.5t-16 12.5l-92 138l-91 -138q-6 -8 -17.5 -12t-19.5 -4z" />
    <glyph glyph-name="y" unicode="y" horiz-adv-x="496" 
d="M72 -217q-30 0 -50.5 11t-20.5 55q0 26 8.5 45t29.5 19q14 0 37 2.5t47.5 14t41 38t16.5 73.5l-175 348q-5 10 -5 20q0 20 18 37t42.5 27t44.5 10q14 0 26 -5.5t17 -19.5l113 -271l83 271q5 14 16.5 19.5t23.5 5.5q18 0 43.5 -10.5t44.5 -27.5t19 -39q0 -10 -4 -17
l-142 -354q-19 -47 -36 -92t-43.5 -81t-72.5 -57.5t-122 -21.5z" />
    <glyph glyph-name="z" unicode="z" horiz-adv-x="448" 
d="M69 0q-28 0 -39.5 17.5t-11.5 36.5t8.5 35t18.5 29l177 233h-153q-18 0 -31 18.5t-13 44.5q0 25 12 43.5t32 18.5h299q19 0 33.5 -12.5t14.5 -38.5q0 -34 -25 -67l-178 -233h177q18 0 31 -18.5t13 -44.5q0 -25 -12 -43.5t-32 -18.5h-321z" />
    <glyph glyph-name="braceleft" unicode="{" horiz-adv-x="380" 
d="M279 -20q-52 0 -102 21t-82.5 58t-32.5 85q0 11 1.5 27.5t4 36.5t4.5 38.5t3.5 33t1.5 21.5q0 16 -9 22t-21 10.5t-21 15.5t-9 38q0 26 9 37t21 15t21 9.5t9 20.5q0 8 -2.5 23.5t-5 34t-5 36.5t-2.5 30q0 34 19 65.5t51 56t70.5 39t78.5 14.5q52 0 69.5 -22t17.5 -46
q0 -22 -11.5 -42.5t-35.5 -20.5q-15 0 -39.5 -5t-44 -19t-19.5 -41q0 -9 2.5 -25.5t5 -36t5 -36t2.5 -25.5q0 -22 -13.5 -42t-22.5 -23q11 -3 23.5 -22t12.5 -42q0 -9 -2.5 -31.5t-5 -48.5t-5 -47t-2.5 -29q0 -16 11 -26.5t27.5 -16t34 -8t30.5 -2.5q19 0 29 -11t14 -26
t4 -28q0 -34 -22.5 -50t-66.5 -16z" />
    <glyph glyph-name="bar" unicode="|" horiz-adv-x="255" 
d="M127 -21q-34 0 -55.5 15t-21.5 33v694q0 21 21.5 34t55.5 13q32 0 55 -13t23 -34v-694q0 -18 -23 -33t-55 -15z" />
    <glyph glyph-name="braceright" unicode="}" horiz-adv-x="380" 
d="M101 -20q-43 0 -66 16t-23 50q0 13 4 28t14.5 26t28.5 11q13 0 30.5 2.5t34 8t27.5 16t11 26.5q0 8 -2.5 29t-5 47t-5 48.5t-2.5 31.5q0 23 13 42t23 22q-9 3 -22.5 23t-13.5 42q0 9 2.5 25.5t5 36t5 36t2.5 25.5q0 27 -19.5 41t-44 19t-39.5 5q-24 0 -35.5 20.5
t-11.5 42.5q0 24 17.5 46t69.5 22q40 0 79 -14.5t70.5 -39t50.5 -56t19 -65.5q0 -12 -2.5 -30t-5 -36.5t-5 -34t-2.5 -23.5q0 -15 9 -20.5t21 -9.5t21 -15t9 -37q0 -27 -9 -38t-21 -15.5t-21 -10.5t-9 -22q0 -7 1.5 -21.5t4 -33t4.5 -38.5t3.5 -36.5t1.5 -27.5
q0 -48 -32.5 -85t-82 -58t-102.5 -21z" />
    <glyph glyph-name="asciitilde" unicode="~" horiz-adv-x="411" 
d="M298 192q-35 0 -59 7t-43.5 13.5t-43.5 6.5q-21 0 -36 -5.5t-26.5 -10.5t-23.5 -5q-15 0 -23.5 10t-11.5 22t-3 17q0 27 10.5 41.5t25 21.5t28.5 8.5t21 1.5q31 0 53 -6.5t44 -13.5t49 -7q21 0 36 5.5t27 10.5t23 5q16 0 24 -10t11 -22t3 -17q0 -27 -10.5 -41.5
t-25 -21.5t-28.5 -8.5t-21 -1.5z" />
    <glyph glyph-name="uni00A0" unicode="&#xa0;" horiz-adv-x="200" 
 />
    <glyph glyph-name="exclamdown" unicode="&#xa1;" horiz-adv-x="229" 
d="M114 -6q-29 0 -50.5 16t-21.5 45q0 60 3.5 132.5l7 145t3.5 131.5q0 23 20 33.5t38 10.5q24 0 41.5 -10.5t17.5 -33.5q0 -59 3.5 -131.5l7 -145t3.5 -132.5q0 -29 -21 -45t-52 -16zM113 577q-31 0 -53.5 23t-22.5 54t22.5 54t53.5 23q33 0 55 -23t22 -54t-22 -54t-55 -23
z" />
    <glyph glyph-name="cent" unicode="&#xa2;" horiz-adv-x="448" 
d="M260 39q-18 0 -30.5 13t-12.5 29v70q-102 9 -148 68t-46 143v18q0 56 20.5 101.5t63.5 74.5t110 35v64q0 18 12.5 29t30.5 11q17 0 30.5 -11t13.5 -29v-68q34 -5 59.5 -17t39.5 -27.5t14 -33.5q0 -14 -7.5 -31t-21 -28.5t-31.5 -11.5q-8 0 -16 3.5t-16.5 9t-20.5 9.5
v-177q11 5 19.5 11t16.5 10t17 4q32 0 49 -23.5t17 -46.5q0 -18 -15.5 -35t-42 -29.5t-61.5 -19.5v-73q0 -16 -13.5 -29t-30.5 -13zM217 280v182q-31 -8 -45 -29t-14 -53v-18q0 -32 14 -53t45 -29z" />
    <glyph glyph-name="sterling" unicode="&#xa3;" horiz-adv-x="565" 
d="M65 0q-22 0 -33.5 21.5t-11.5 46.5q0 26 11.5 47t33.5 21h50l32 230h-47q-19 0 -28.5 17t-9.5 38q0 20 9.5 37.5t28.5 17.5h63l10 69q10 66 49 116.5t97 78.5t123 28h42q24 0 37 -21t13 -46t-13 -46.5t-37 -21.5h-47q-35 0 -58 -11.5t-35 -31t-16 -45.5l-10 -69h107
q19 0 28.5 -17.5t9.5 -37.5q0 -21 -9.5 -38t-28.5 -17h-123l-33 -230h220q23 0 34 -21t11 -47q0 -25 -11 -46.5t-34 -21.5h-424z" />
    <glyph glyph-name="currency" unicode="&#xa4;" horiz-adv-x="440" 
d="M220 290q-30 0 -58 10.5t-51 29.5l-24 -21q-6 -5 -14 -5q-12 0 -21.5 10t-9.5 21q0 7 6 13l26 24q-15 22 -23 47.5t-8 52.5t8 52.5t23 47.5l-26 24q-6 6 -6 13q0 11 9.5 21t21.5 10q8 0 14 -5l24 -22q23 18 50.5 28.5t58.5 10.5q30 0 58 -10.5t51 -28.5l24 22q6 5 14 5
q12 0 21.5 -10t9.5 -21q0 -7 -6 -13l-26 -24q15 -21 23.5 -46.5t8.5 -52.5q0 -28 -8.5 -53.5t-23.5 -47.5l26 -24q6 -6 6 -13q0 -11 -9.5 -21t-21.5 -10q-8 0 -14 5l-24 22q-23 -19 -51 -30t-58 -11zM220 371q27 0 49.5 14.5t35.5 37.5t13 48q0 26 -13 48.5t-35 37t-50 14.5
q-27 0 -49 -14t-35 -36.5t-13 -48.5t13 -49t35 -37.5t49 -14.5z" />
    <glyph glyph-name="yen" unicode="&#xa5;" horiz-adv-x="587" 
d="M294 0q-29 0 -53.5 12t-24.5 36v95h-81q-21 0 -34 14.5t-13 37.5t13 39t34 16h81v60h-81q-21 0 -34 14.5t-13 37.5t13 39t34 16h46l-156 239q-3 4 -4 9.5t-1 8.5q0 16 15 30.5t37 24t42 9.5q17 0 25.5 -10.5t16.5 -25.5l138 -251l137 251q8 15 17 25.5t25 10.5
q20 0 42 -10t37 -24.5t15 -28.5q0 -11 -5 -19l-156 -239h49q18 0 33 -15.5t15 -38.5t-15 -38t-33 -15h-83v-60h83q18 0 33 -15.5t15 -38.5t-15 -38t-33 -15h-83v-95q0 -24 -24.5 -36t-53.5 -12z" />
    <glyph glyph-name="brokenbar" unicode="&#xa6;" horiz-adv-x="255" 
d="M127 432q-34 0 -55.5 15t-21.5 33v241q0 21 21.5 34t55.5 13q32 0 55 -13t23 -34v-241q0 -18 -23 -33t-55 -15zM127 -21q-34 0 -55.5 15t-21.5 33v241q0 21 21.5 34t55.5 13q32 0 55 -13t23 -34v-241q0 -18 -23 -33t-55 -15z" />
    <glyph glyph-name="section" unicode="&#xa7;" horiz-adv-x="485" 
d="M237 -69q-67 0 -111.5 26t-66 64.5t-21.5 77.5q0 35 17 47.5t48 12.5q38 0 52 -12t14 -29q0 -10 2 -20.5t7.5 -19.5t17.5 -14.5t33 -5.5q37 0 51.5 16.5t14.5 35.5q0 22 -14 37t-37 27t-50.5 24.5t-54.5 29t-50 41t-37 60.5t-14 88v100q0 65 19.5 106.5t50 65t66 33
t68.5 9.5q64 0 106 -26t62.5 -64.5t20.5 -78.5q0 -36 -15.5 -47.5t-41.5 -11.5q-38 0 -51.5 14.5t-13.5 32.5q0 13 -5 26t-18.5 22t-38.5 9q-24 0 -39 -8.5t-21.5 -21t-6.5 -25.5q0 -22 14.5 -37t39 -27t53.5 -24.5t57.5 -29t53 -41t39 -60.5t14.5 -88v-100
q0 -65 -20 -106.5t-52.5 -65t-70 -33t-71.5 -9.5zM326 248v18q0 28 -12 46t-30.5 30.5t-40.5 21.5t-42.5 17.5t-35.5 20.5v-18q0 -28 12 -46t30.5 -30.5t40.5 -21.5t42.5 -17.5t35.5 -20.5z" />
    <glyph glyph-name="dieresis" unicode="&#xa8;" horiz-adv-x="273" 
d="M217 571q-23 0 -40 18t-17 41t17 40.5t40 17.5t39.5 -17.5t16.5 -40.5t-16.5 -41t-39.5 -18zM57 571q-23 0 -40 18t-17 41t17 40.5t40 17.5t39.5 -17.5t16.5 -40.5t-16.5 -41t-39.5 -18z" />
    <glyph glyph-name="copyright" unicode="&#xa9;" horiz-adv-x="680" 
d="M337 35q-53 0 -106.5 20t-98.5 60t-72 101t-27 142q0 84 28.5 145.5t74.5 101.5t100.5 60t106.5 20q53 0 106.5 -20t98.5 -60t72 -101t27 -142q0 -84 -28.5 -145.5t-74.5 -101.5t-100.5 -60t-106.5 -20zM337 105q72 0 126 32.5t84 90.5t30 134q0 74 -28.5 131t-81 89.5
t-124.5 32.5q-71 0 -125.5 -32.5t-84.5 -90t-30 -134.5q0 -73 28.5 -130.5t81 -90t124.5 -32.5zM341 171q-51 0 -88 29.5t-37 101.5v130q0 72 37 101.5t88 29.5q56 0 93 -28.5t37 -81.5q0 -24 -10 -32t-30 -8q-16 0 -28 6t-13 20q0 8 -2.5 20t-12 21.5t-31.5 9.5
q-47 0 -47 -58v-130q0 -58 47 -58q21 0 30.5 9.5t12 23t3.5 24.5q1 15 12.5 20t27.5 5q21 0 31 -8t10 -32q0 -55 -37 -85t-93 -30z" />
    <glyph glyph-name="ordfeminine" unicode="&#xaa;" horiz-adv-x="338" 
d="M139 438q-7 -2 -15.5 -3t-16.5 -1q-34 1 -60 22.5t-26 67.5q0 59 44.5 80.5t114.5 21.5h25v7q0 19 -11.5 36.5t-41.5 17.5q-28 0 -41.5 -5.5t-21 -11t-16.5 -5.5q-16 0 -25 16.5t-9 33.5q0 16 18.5 27.5t45 18.5t50.5 7q55 0 88.5 -19t48.5 -49.5t15 -65.5v-163
q0 -13 -13.5 -22t-35.5 -9q-19 0 -31.5 9t-12.5 22v17q-14 -16 -32 -30t-41 -20zM151 507q12 0 24.5 8.5t21 23t8.5 31.5v6h-18q-17 0 -32 -3.5t-24 -11.5t-9 -23q0 -16 8 -23.5t21 -7.5z" />
    <glyph glyph-name="guillemotleft" unicode="&#xab;" horiz-adv-x="537" 
d="M408 74q-32 0 -42 19l-67 125q-12 23 -20 34t-8 24q0 14 8 26t20 34l67 125q10 19 42 19q26 0 48.5 -13t36 -31t13.5 -34q0 -8 -3 -14l-59 -111l59 -111q3 -6 3 -14q0 -15 -13.5 -33.5t-36 -31.5t-48.5 -13zM158 74q-32 0 -42 19l-67 125q-12 23 -20 34t-8 24q0 14 8 26
t20 34l67 125q10 19 42 19q26 0 48.5 -13t36 -31t13.5 -34q0 -8 -3 -14l-59 -111l59 -111q3 -6 3 -14q0 -15 -13.5 -33.5t-36 -31.5t-48.5 -13z" />
    <glyph glyph-name="logicalnot" unicode="&#xac;" horiz-adv-x="504" 
d="M384 163q-34 0 -55.5 15t-21.5 33v66h-234q-21 0 -34 17.5t-13 45.5q0 27 13 45.5t34 18.5h341q18 0 33 -18.5t15 -45.5v-129q0 -18 -23 -33t-55 -15z" />
    <glyph glyph-name="uni00AD" unicode="&#xad;" horiz-adv-x="476" 
d="M78 177q-21 0 -34 17.5t-13 45.5q0 27 13 45.5t34 18.5h320q18 0 33 -18.5t15 -45.5q0 -28 -15 -45.5t-33 -17.5h-320z" />
    <glyph glyph-name="registered" unicode="&#xae;" horiz-adv-x="680" 
d="M337 35q-53 0 -106.5 20t-98.5 60t-72 101t-27 142q0 84 28.5 145.5t74.5 101.5t100.5 60t106.5 20q53 0 106.5 -20t98.5 -60t72 -101t27 -142q0 -84 -28.5 -145.5t-74.5 -101.5t-100.5 -60t-106.5 -20zM337 105q72 0 126 32.5t84 90.5t30 134q0 74 -28.5 131t-81 89.5
t-124.5 32.5q-71 0 -125.5 -32.5t-84.5 -90t-30 -134.5q0 -73 28.5 -130.5t81 -90t124.5 -32.5zM432 181q-7 0 -12.5 4t-10.5 13l-63 126h-42v-116q0 -12 -10.5 -19t-25.5 -7t-27.5 6.5t-12.5 19.5v314q0 10 7 17.5t18 7.5h101q33 0 60.5 -10t44.5 -33.5t17 -64.5
q0 -40 -18 -65.5t-45 -36.5l59 -108q1 -2 1 -7q0 -16 -13.5 -28.5t-27.5 -12.5zM304 388h50q23 0 35 10.5t12 32.5q0 28 -12 38.5t-35 10.5h-50v-92z" />
    <glyph glyph-name="uni0304" unicode="&#xaf;" 
d="M47 600q-21 0 -34 13.5t-13 35.5q0 21 13 35.5t34 14.5h200q18 0 33 -14.5t15 -35.5q0 -22 -15 -35.5t-33 -13.5h-200z" />
    <glyph glyph-name="degree" unicode="&#xb0;" horiz-adv-x="389" 
d="M194 406q-47 0 -87.5 25.5t-65 67t-24.5 89.5t24 89t64.5 66t88.5 25t88.5 -24.5t65 -65t24.5 -89.5q0 -48 -24.5 -90t-65 -67.5t-88.5 -25.5zM194 487q27 0 49.5 14.5t35.5 37.5t13 48q0 26 -13 48.5t-35 37t-49 14.5q-28 0 -50 -14t-35 -36.5t-13 -48.5t13 -49
t35 -37.5t49 -14.5z" />
    <glyph glyph-name="plusminus" unicode="&#xb1;" horiz-adv-x="473" 
d="M237 178q-27 0 -45.5 13t-18.5 34v87h-97q-21 0 -34 17.5t-13 45.5q0 27 13 45.5t34 18.5h97v86q0 18 18.5 33t45.5 15q29 0 46 -15t17 -33v-86h96q18 0 33 -18.5t15 -45.5q0 -28 -15 -45.5t-33 -17.5h-96v-87q0 -21 -17 -34t-46 -13zM76 22q-21 0 -34 17.5t-13 45.5
q0 27 13 45.5t34 18.5h320q18 0 33 -18.5t15 -45.5q0 -28 -15 -45.5t-33 -17.5h-320z" />
    <glyph glyph-name="uni00B2" unicode="&#xb2;" horiz-adv-x="326" 
d="M63 322q-13 0 -28.5 8.5t-15.5 21.5v55q0 26 19 48t47 42t55.5 38.5t46.5 37t19 37.5q0 10 -9 20.5t-32 10.5q-16 0 -28.5 -8t-12.5 -28q0 -13 -14 -24.5t-39 -11.5q-19 0 -32 10.5t-13 40.5q0 36 20 60.5t52 37.5t66 13q35 0 68 -13t54 -39t21 -66q0 -35 -18.5 -62
t-45.5 -47t-54.5 -36t-46 -29t-18.5 -26v-4h152q12 0 21 -13t9 -30t-9 -30.5t-21 -13.5h-213z" />
    <glyph glyph-name="uni00B3" unicode="&#xb3;" horiz-adv-x="336" 
d="M160 319q-52 0 -84 17.5t-46.5 42.5t-14.5 49q0 21 10.5 28t37.5 7q31 0 41 -7t10 -25q0 -12 8 -17.5t19.5 -6.5t22.5 -1q29 0 40 9.5t11 31.5v11q0 26 -15.5 31.5t-38.5 5.5q-16 0 -22.5 12t-6.5 26t6.5 26t22.5 13q14 1 28.5 6t14.5 35q0 22 -12 27.5t-29 5.5
q-12 0 -21 -1t-14 -5t-5 -15q0 -16 -9 -25.5t-38 -9.5q-35 0 -43.5 8t-8.5 30q0 24 13 47.5t43.5 39.5t82.5 16q59 0 98 -22t39 -80q0 -28 -11.5 -54.5t-34.5 -36.5q27 -9 44 -28t17 -52v-11q0 -46 -21 -74.5t-56 -41t-78 -12.5z" />
    <glyph glyph-name="acute" unicode="&#xb4;" horiz-adv-x="221" 
d="M46 559q-19 0 -32.5 19.5t-13.5 38.5q0 25 20 35l140 65q8 3 14 3q20 0 33.5 -19t13.5 -39q0 -24 -20 -34l-140 -65q-4 -1 -7.5 -2.5t-7.5 -1.5z" />
    <glyph glyph-name="uni03BC" unicode="&#xb5;" horiz-adv-x="529" 
d="M127 -217q-33 0 -54.5 15t-21.5 33v597q0 18 23 33t55 15q31 0 54 -15t23 -33v-228q0 -14 5.5 -27.5t16 -24t23.5 -17t28 -6.5q20 0 36.5 11t26 28t9.5 36v229q0 19 23.5 33t54.5 14q34 0 55.5 -14t21.5 -33v-229q0 -56 -31 -104t-82.5 -77t-113.5 -29q-25 0 -48.5 8
t-44.5 21v-188q0 -18 -17.5 -33t-41.5 -15z" />
    <glyph glyph-name="paragraph" unicode="&#xb6;" horiz-adv-x="572" 
d="M284 0q-18 0 -33 12t-15 36v258h-18q-55 0 -99.5 20.5t-70.5 66t-26 120.5v12q0 75 26 120t70.5 65.5t99.5 20.5h247q18 0 33 -12t15 -36v-636q0 -25 -15 -36t-33 -11t-33 11t-15 36v618h-85v-617q0 -24 -15 -36t-33 -12z" />
    <glyph glyph-name="periodcentered" unicode="&#xb7;" horiz-adv-x="213" 
d="M107 228q-34 0 -58 22t-24 50q0 29 24 50t58 21t57.5 -21t23.5 -50q0 -28 -23.5 -50t-57.5 -22z" />
    <glyph glyph-name="cedilla" unicode="&#xb8;" horiz-adv-x="199" 
d="M88 -219q-18 0 -38.5 3.5t-35 10.5t-14.5 17q0 4 2.5 14t8.5 19t15 9t21.5 -7t36.5 -7q20 0 33 7.5t13 23.5q0 13 -10 22.5t-33 11.5l-62 6l29 98h64l-19 -56q51 -2 75.5 -24.5t24.5 -54.5q0 -17 -9.5 -39t-33.5 -38t-68 -16z" />
    <glyph glyph-name="uni00B9" unicode="&#xb9;" horiz-adv-x="201" 
d="M115 322q-19 0 -35 7.5t-16 22.5v273l-16 -4q-9 -3 -16 -3q-13 0 -22 12.5t-9 26.5q0 11 4 19.5t14 13.5l84 40q8 3 17 3q16 0 30.5 -8.5t14.5 -22.5v-350q0 -15 -15.5 -22.5t-34.5 -7.5z" />
    <glyph glyph-name="ordmasculine" unicode="&#xba;" horiz-adv-x="349" 
d="M174 433q-41 0 -75.5 20t-55.5 53t-21 70v50q0 38 20.5 70.5t55 52t76.5 19.5q41 0 76 -19t56 -51.5t21 -71.5v-50q0 -37 -21 -70t-56 -53t-76 -20zM174 521q22 0 37.5 16.5t15.5 38.5v50q0 21 -15.5 37.5t-37.5 16.5t-37 -16.5t-15 -37.5v-50q0 -22 15 -38.5t37 -16.5z
" />
    <glyph glyph-name="guillemotright" unicode="&#xbb;" horiz-adv-x="537" 
d="M379 74q-26 0 -48.5 13t-36 31.5t-13.5 33.5q0 8 3 14l59 111l-59 111q-3 6 -3 14q0 16 13.5 34t36 31t48.5 13q33 0 42 -19l67 -125q12 -22 20 -34t8 -26q0 -13 -8 -24t-20 -34l-67 -125q-9 -19 -42 -19zM129 74q-26 0 -48.5 13t-36 31.5t-13.5 33.5q0 8 3 14l59 111
l-59 111q-3 6 -3 14q0 16 13.5 34t36 31t48.5 13q33 0 42 -19l67 -125q12 -22 20 -34t8 -26q0 -13 -8 -24t-20 -34l-67 -125q-9 -19 -42 -19z" />
    <glyph glyph-name="onequarter" unicode="&#xbc;" horiz-adv-x="726" 
d="M115 322q-19 0 -35 7.5t-16 22.5v273l-16 -4q-9 -3 -16 -3q-13 0 -22 12.5t-9 26.5q0 11 4 19.5t14 13.5l84 40q8 3 17 3q16 0 30.5 -8.5t14.5 -22.5v-350q0 -15 -15.5 -22.5t-34.5 -7.5zM127 -46q-25 0 -40.5 17t-15.5 36q0 9 5 19l351 721q12 25 42 25q21 0 40 -14.5
t19 -38.5q0 -11 -4 -19l-352 -721q-5 -11 -18 -18t-27 -7zM620 0q-19 0 -34.5 7.5t-15.5 22.5v54h-139q-13 0 -23 8.5t-10 25.5q0 9 5 18l137 248q8 14 19 19.5t23 5.5q13 0 31.5 -10t18.5 -27q0 -6 -3 -12l-102 -184h43v21q0 16 15.5 23t34.5 7q20 0 35.5 -7t15.5 -23v-21
h25q15 0 22.5 -14.5t7.5 -31.5t-9.5 -31.5t-20.5 -14.5h-25v-54q0 -15 -15.5 -22.5t-35.5 -7.5z" />
    <glyph glyph-name="onehalf" unicode="&#xbd;" horiz-adv-x="725" 
d="M115 322q-19 0 -35 7.5t-16 22.5v273l-16 -4q-9 -3 -16 -3q-13 0 -22 12.5t-9 26.5q0 11 4 19.5t14 13.5l84 40q8 3 17 3q16 0 30.5 -8.5t14.5 -22.5v-350q0 -15 -15.5 -22.5t-34.5 -7.5zM127 -46q-25 0 -40.5 17t-15.5 36q0 9 5 19l351 721q12 25 42 25q21 0 40 -14.5
t19 -38.5q0 -11 -4 -19l-352 -721q-5 -11 -18 -18t-27 -7zM462 0q-13 0 -28.5 8.5t-15.5 21.5v55q0 26 19 48t47 42t55.5 38.5t46.5 37t19 37.5q0 10 -9 20.5t-32 10.5q-16 0 -28.5 -8t-12.5 -28q0 -13 -14 -24.5t-39 -11.5q-19 0 -32 10.5t-13 40.5q0 36 20 61t52 37.5
t66 12.5q35 0 68 -13t54 -39t21 -66q0 -35 -18.5 -62t-45.5 -47t-54.5 -36t-46 -29t-18.5 -26v-4h152q12 0 21 -13t9 -30t-9 -30.5t-21 -13.5h-213z" />
    <glyph glyph-name="threequarters" unicode="&#xbe;" horiz-adv-x="861" 
d="M160 319q-52 0 -84 17.5t-46.5 42.5t-14.5 49q0 21 10.5 28t37.5 7q31 0 41 -7t10 -25q0 -12 8 -17.5t19.5 -6.5t22.5 -1q29 0 40 9.5t11 31.5v11q0 26 -15.5 31.5t-38.5 5.5q-16 0 -22.5 12t-6.5 26t6.5 26t22.5 13q14 1 28.5 6t14.5 35q0 22 -12 27.5t-29 5.5
q-12 0 -21 -1t-14 -5t-5 -15q0 -16 -9 -25.5t-38 -9.5q-35 0 -43.5 8t-8.5 30q0 24 13 47.5t43.5 39.5t82.5 16q59 0 98 -22t39 -80q0 -28 -11.5 -54.5t-34.5 -36.5q27 -9 44 -28t17 -52v-11q0 -46 -21 -74.5t-56 -41t-78 -12.5zM262 -46q-25 0 -40.5 17t-15.5 36q0 9 5 19
l351 721q12 25 42 25q21 0 40 -14.5t19 -38.5q0 -11 -4 -19l-352 -721q-5 -11 -18 -18t-27 -7zM755 0q-19 0 -34.5 7.5t-15.5 22.5v54h-139q-13 0 -23 8.5t-10 25.5q0 9 5 18l137 248q8 14 19 19.5t23 5.5q13 0 31.5 -10t18.5 -27q0 -6 -3 -12l-102 -184h43v21q0 16 15.5 23
t34.5 7q20 0 35.5 -7t15.5 -23v-21h25q15 0 22.5 -14.5t7.5 -31.5t-9.5 -31.5t-20.5 -14.5h-25v-54q0 -15 -15.5 -22.5t-35.5 -7.5z" />
    <glyph glyph-name="questiondown" unicode="&#xbf;" horiz-adv-x="452" 
d="M235 -6q-64 0 -112 21.5t-74.5 59t-26.5 84.5q0 35 13.5 65t32.5 54t37.5 40t28.5 24q28 22 39.5 40.5t14 38.5t2.5 46q0 14 11 27.5t48 13.5q31 0 43 -14t12 -53q0 -43 -10.5 -72t-26 -48t-30.5 -32q-12 -10 -27.5 -21.5t-29.5 -25t-23 -30t-9 -36.5q0 -34 26.5 -51
t63.5 -17q38 0 57 11.5t28 27t19 27t30 11.5t40 -14t20 -43q0 -27 -21 -58t-64.5 -53.5t-111.5 -22.5zM248 577q-31 0 -54 23t-23 54t22.5 54t54.5 23t54 -23t22 -54t-22 -54t-54 -23z" />
    <glyph glyph-name="Agrave" unicode="&#xc0;" horiz-adv-x="589" 
d="M104 0q-21 0 -44.5 8.5t-39.5 23t-16 32.5q0 3 2 11l186 610q8 26 38 39t64 13q35 0 64.5 -13t37.5 -39l187 -610q2 -8 2 -11q0 -18 -16 -32.5t-39 -23t-45 -8.5q-19 0 -32.5 6.5t-18.5 22.5l-34 125h-211l-34 -125q-4 -16 -18 -22.5t-33 -6.5zM221 274h146l-73 268z
M333 797q-4 0 -7.5 1.5t-7.5 2.5l-140 65q-20 10 -20 34q0 20 13.5 39t33.5 19q7 0 14 -3l140 -65q20 -10 20 -35q0 -19 -13 -38.5t-33 -19.5z" />
    <glyph glyph-name="Aacute" unicode="&#xc1;" horiz-adv-x="589" 
d="M104 0q-21 0 -44.5 8.5t-39.5 23t-16 32.5q0 3 2 11l186 610q8 26 38 39t64 13q35 0 64.5 -13t37.5 -39l187 -610q2 -8 2 -11q0 -18 -16 -32.5t-39 -23t-45 -8.5q-19 0 -32.5 6.5t-18.5 22.5l-34 125h-211l-34 -125q-4 -16 -18 -22.5t-33 -6.5zM221 274h146l-73 268z
M265 798q-19 0 -32.5 19.5t-13.5 38.5q0 25 20 35l140 65q8 3 14 3q20 0 33.5 -19t13.5 -39q0 -24 -20 -34l-140 -65q-4 -1 -7.5 -2.5t-7.5 -1.5z" />
    <glyph glyph-name="Acircumflex" unicode="&#xc2;" horiz-adv-x="589" 
d="M104 0q-21 0 -44.5 8.5t-39.5 23t-16 32.5q0 3 2 11l186 610q8 26 38 39t64 13q35 0 64.5 -13t37.5 -39l187 -610q2 -8 2 -11q0 -18 -16 -32.5t-39 -23t-45 -8.5q-19 0 -32.5 6.5t-18.5 22.5l-34 125h-211l-34 -125q-4 -16 -18 -22.5t-33 -6.5zM221 274h146l-73 268z
M180 807q-13 0 -22 14.5t-9 31.5q0 13 6 25t19 19l104 56q10 5 17 5t17 -5l104 -56q14 -7 19.5 -19t5.5 -25q0 -17 -8.5 -31.5t-22.5 -14.5q-2 0 -5 1l-6 2l-104 56l-104 -56l-6 -2t-5 -1z" />
    <glyph glyph-name="Atilde" unicode="&#xc3;" horiz-adv-x="589" 
d="M104 0q-21 0 -44.5 8.5t-39.5 23t-16 32.5q0 3 2 11l186 610q8 26 38 39t64 13q35 0 64.5 -13t37.5 -39l187 -610q2 -8 2 -11q0 -18 -16 -32.5t-39 -23t-45 -8.5q-19 0 -32.5 6.5t-18.5 22.5l-34 125h-211l-34 -125q-4 -16 -18 -22.5t-33 -6.5zM221 274h146l-73 268z
M387 817q-35 0 -59 7t-43.5 13.5t-43.5 6.5q-21 0 -36 -5t-26.5 -10.5t-23.5 -5.5q-15 0 -23.5 10t-11.5 22t-3 17q0 27 10.5 41.5t25 21.5t28.5 8.5t21 1.5q31 0 53 -6.5t44 -13.5t49 -7q21 0 36 5.5t27 10.5t23 5q16 0 24 -10t11 -22t3 -17q0 -27 -10.5 -41.5t-25 -21.5
t-28.5 -8.5t-21 -1.5z" />
    <glyph glyph-name="Adieresis" unicode="&#xc4;" horiz-adv-x="589" 
d="M104 0q-21 0 -44.5 8.5t-39.5 23t-16 32.5q0 3 2 11l186 610q8 26 38 39t64 13q35 0 64.5 -13t37.5 -39l187 -610q2 -8 2 -11q0 -18 -16 -32.5t-39 -23t-45 -8.5q-19 0 -32.5 6.5t-18.5 22.5l-34 125h-211l-34 -125q-4 -16 -18 -22.5t-33 -6.5zM221 274h146l-73 268z
M374 809q-23 0 -40 18t-17 41t17 40.5t40 17.5t39.5 -17.5t16.5 -40.5t-16.5 -41t-39.5 -18zM214 809q-23 0 -40 18t-17 41t17 40.5t40 17.5t39.5 -17.5t16.5 -40.5t-16.5 -41t-39.5 -18z" />
    <glyph glyph-name="Aring" unicode="&#xc5;" horiz-adv-x="589" 
d="M104 0q-21 0 -44.5 8.5t-39.5 23t-16 32.5q0 3 2 11l186 610q8 26 38 39t64 13q35 0 64.5 -13t37.5 -39l187 -610q2 -8 2 -11q0 -18 -16 -32.5t-39 -23t-45 -8.5q-19 0 -32.5 6.5t-18.5 22.5l-34 125h-211l-34 -125q-4 -16 -18 -22.5t-33 -6.5zM221 274h146l-73 268z
M294 799q-26 0 -49 14.5t-36.5 38t-13.5 50.5q0 26 13.5 49t36 37.5t49.5 14.5t50 -14t37 -37t14 -50t-14 -50.5t-37 -38t-50 -14.5zM295 859q17 0 28 13t11 29q0 15 -11 27t-28 12t-29 -12.5t-12 -26.5q0 -15 12 -28.5t29 -13.5z" />
    <glyph glyph-name="AE" unicode="&#xc6;" horiz-adv-x="817" 
d="M119 0q-37 0 -52.5 15.5t-15.5 37.5v442q0 86 31.5 138t85 75t119.5 23h469q25 0 36 -21.5t11 -45.5q0 -28 -12 -48.5t-35 -20.5h-226v-169h108q23 0 35 -18.5t12 -42.5q0 -20 -11 -39.5t-36 -19.5h-108v-170h226q23 0 35 -20.5t12 -48.5q0 -24 -11 -45.5t-36 -21.5h-314
q-25 0 -46.5 12t-21.5 36v258h-177v-253q0 -22 -13 -37.5t-65 -15.5zM197 426h177v169h-87q-42 0 -66 -24.5t-24 -75.5v-69z" />
    <glyph glyph-name="Ccedilla" unicode="&#xc7;" horiz-adv-x="562" 
d="M286 -6q-65 0 -120 23t-87.5 75t-32.5 138v265q0 86 32.5 138t87.5 75t120 23q72 0 128.5 -23.5t89.5 -67.5t33 -108q0 -45 -19 -59.5t-59 -14.5q-31 0 -53.5 10t-24.5 37q0 10 -2.5 25t-10.5 30t-26 25t-50 10q-43 0 -66.5 -24.5t-23.5 -75.5v-265q0 -51 24 -75.5
t67 -24.5q30 0 47.5 10t25.5 25.5t11 32.5t4 32q2 28 24.5 37.5t52.5 9.5q41 0 60 -14.5t19 -59.5q0 -66 -33 -113t-89.5 -71.5t-128.5 -24.5zM290 -219q-18 0 -38.5 3.5t-35 10.5t-14.5 17q0 4 2.5 14t8.5 19t15 9t21.5 -7t36.5 -7q20 0 33 7.5t13 23.5q0 13 -10 22.5
t-33 11.5l-62 6l29 98h64l-19 -56q51 -2 75.5 -24.5t24.5 -54.5q0 -17 -9.5 -39t-33.5 -38t-68 -16z" />
    <glyph glyph-name="Egrave" unicode="&#xc8;" horiz-adv-x="539" 
d="M122 0q-25 0 -46.5 12t-21.5 36v635q0 24 21.5 36t46.5 12h356q25 0 36 -21.5t11 -45.5q0 -28 -12 -48.5t-35 -20.5h-268v-169h150q23 0 35 -18.5t12 -42.5q0 -20 -11 -39.5t-36 -19.5h-150v-170h268q23 0 35 -20.5t12 -48.5q0 -24 -11 -45.5t-36 -21.5h-356zM320 797
q-4 0 -7.5 1.5t-7.5 2.5l-140 65q-20 10 -20 34q0 20 13.5 39t33.5 19q7 0 14 -3l140 -65q20 -10 20 -35q0 -19 -13 -38.5t-33 -19.5z" />
    <glyph glyph-name="Eacute" unicode="&#xc9;" horiz-adv-x="539" 
d="M122 0q-25 0 -46.5 12t-21.5 36v635q0 24 21.5 36t46.5 12h356q25 0 36 -21.5t11 -45.5q0 -28 -12 -48.5t-35 -20.5h-268v-169h150q23 0 35 -18.5t12 -42.5q0 -20 -11 -39.5t-36 -19.5h-150v-170h268q23 0 35 -20.5t12 -48.5q0 -24 -11 -45.5t-36 -21.5h-356zM252 798
q-19 0 -32.5 19.5t-13.5 38.5q0 25 20 35l140 65q8 3 14 3q20 0 33.5 -19t13.5 -39q0 -24 -20 -34l-140 -65q-4 -1 -7.5 -2.5t-7.5 -1.5z" />
    <glyph glyph-name="Ecircumflex" unicode="&#xca;" horiz-adv-x="539" 
d="M122 0q-25 0 -46.5 12t-21.5 36v635q0 24 21.5 36t46.5 12h356q25 0 36 -21.5t11 -45.5q0 -28 -12 -48.5t-35 -20.5h-268v-169h150q23 0 35 -18.5t12 -42.5q0 -20 -11 -39.5t-36 -19.5h-150v-170h268q23 0 35 -20.5t12 -48.5q0 -24 -11 -45.5t-36 -21.5h-356zM167 807
q-13 0 -22 14.5t-9 31.5q0 13 6 25t19 19l104 56q10 5 17 5t17 -5l104 -56q14 -7 19.5 -19t5.5 -25q0 -17 -8.5 -31.5t-22.5 -14.5q-2 0 -5 1l-6 2l-104 56l-104 -56l-6 -2t-5 -1z" />
    <glyph glyph-name="Edieresis" unicode="&#xcb;" horiz-adv-x="539" 
d="M122 0q-25 0 -46.5 12t-21.5 36v635q0 24 21.5 36t46.5 12h356q25 0 36 -21.5t11 -45.5q0 -28 -12 -48.5t-35 -20.5h-268v-169h150q23 0 35 -18.5t12 -42.5q0 -20 -11 -39.5t-36 -19.5h-150v-170h268q23 0 35 -20.5t12 -48.5q0 -24 -11 -45.5t-36 -21.5h-356zM361 809
q-23 0 -40 18t-17 41t17 40.5t40 17.5t39.5 -17.5t16.5 -40.5t-16.5 -41t-39.5 -18zM201 809q-23 0 -40 18t-17 41t17 40.5t40 17.5t39.5 -17.5t16.5 -40.5t-16.5 -41t-39.5 -18z" />
    <glyph glyph-name="Igrave" unicode="&#xcc;" horiz-adv-x="264" 
d="M132 0q-29 0 -53.5 12t-24.5 36v636q0 25 24.5 36t53.5 11t53.5 -11t24.5 -36v-636q0 -24 -24.5 -36t-53.5 -12zM170 797q-4 0 -7.5 1.5t-7.5 2.5l-140 65q-20 10 -20 34q0 20 13.5 39t33.5 19q7 0 14 -3l140 -65q20 -10 20 -35q0 -19 -13 -38.5t-33 -19.5z" />
    <glyph glyph-name="Iacute" unicode="&#xcd;" horiz-adv-x="264" 
d="M132 0q-29 0 -53.5 12t-24.5 36v636q0 25 24.5 36t53.5 11t53.5 -11t24.5 -36v-636q0 -24 -24.5 -36t-53.5 -12zM102 798q-19 0 -32.5 19.5t-13.5 38.5q0 25 20 35l140 65q8 3 14 3q20 0 33.5 -19t13.5 -39q0 -24 -20 -34l-140 -65q-4 -1 -7.5 -2.5t-7.5 -1.5z" />
    <glyph glyph-name="Icircumflex" unicode="&#xce;" horiz-adv-x="264" 
d="M132 0q-29 0 -53.5 12t-24.5 36v636q0 25 24.5 36t53.5 11t53.5 -11t24.5 -36v-636q0 -24 -24.5 -36t-53.5 -12zM17 807q-13 0 -22 14.5t-9 31.5q0 13 6 25t19 19l104 56q10 5 17 5t17 -5l104 -56q14 -7 19.5 -19t5.5 -25q0 -17 -8.5 -31.5t-22.5 -14.5q-2 0 -5 1l-6 2
l-104 56l-104 -56l-6 -2t-5 -1z" />
    <glyph glyph-name="Idieresis" unicode="&#xcf;" horiz-adv-x="264" 
d="M132 0q-29 0 -53.5 12t-24.5 36v636q0 25 24.5 36t53.5 11t53.5 -11t24.5 -36v-636q0 -24 -24.5 -36t-53.5 -12zM211 809q-23 0 -40 18t-17 41t17 40.5t40 17.5t39.5 -17.5t16.5 -40.5t-16.5 -41t-39.5 -18zM51 809q-23 0 -40 18t-17 41t17 40.5t40 17.5t39.5 -17.5
t16.5 -40.5t-16.5 -41t-39.5 -18z" />
    <glyph glyph-name="Eth" unicode="&#xd0;" horiz-adv-x="596" 
d="M128 0q-31 0 -49.5 14t-18.5 33v280h-32q-19 0 -28.5 17t-9.5 38q0 20 9.5 37.5t28.5 17.5h32v247q0 19 18.5 33t49.5 14h177q69 0 125 -23t88.5 -75t32.5 -138v-259q0 -86 -32.5 -138t-88.5 -75t-125 -23h-177zM216 136h89q42 0 66 24.5t24 75.5v259q0 51 -24 75.5
t-66 24.5h-89v-158h62q19 0 28.5 -17.5t9.5 -37.5q0 -22 -9.5 -38.5t-28.5 -16.5h-62v-191z" />
    <glyph glyph-name="Ntilde" unicode="&#xd1;" horiz-adv-x="619" 
d="M132 0q-29 0 -53.5 12t-24.5 36v635q0 25 24.5 36.5t53.5 11.5q28 0 46.5 -4.5t34 -20.5t34.5 -53l162 -309v340q0 25 24.5 36t53.5 11t53.5 -11t24.5 -36v-636q0 -24 -24.5 -36t-53.5 -12q-27 0 -50 8t-37 34l-190 346v-340q0 -24 -24.5 -36t-53.5 -12zM402 817
q-35 0 -59 7t-43.5 13.5t-43.5 6.5q-21 0 -36 -5t-26.5 -10.5t-23.5 -5.5q-15 0 -23.5 10t-11.5 22t-3 17q0 27 10.5 41.5t25 21.5t28.5 8.5t21 1.5q31 0 53 -6.5t44 -13.5t49 -7q21 0 36 5.5t27 10.5t23 5q16 0 24 -10t11 -22t3 -17q0 -27 -10.5 -41.5t-25 -21.5
t-28.5 -8.5t-21 -1.5z" />
    <glyph glyph-name="Ograve" unicode="&#xd2;" horiz-adv-x="583" 
d="M291 -6q-69 0 -124.5 23t-88 75t-32.5 138v265q0 86 32.5 138t88 75t124.5 23t125 -23t88.5 -75t32.5 -138v-265q0 -86 -32.5 -138t-88.5 -75t-125 -23zM291 130q42 0 66 24t24 76v265q0 52 -24 76t-66 24t-65.5 -24t-23.5 -76v-265q0 -52 23.5 -76t65.5 -24zM330 797
q-4 0 -7.5 1.5t-7.5 2.5l-140 65q-20 10 -20 34q0 20 13.5 39t33.5 19q7 0 14 -3l140 -65q20 -10 20 -35q0 -19 -13 -38.5t-33 -19.5z" />
    <glyph glyph-name="Oacute" unicode="&#xd3;" horiz-adv-x="583" 
d="M291 -6q-69 0 -124.5 23t-88 75t-32.5 138v265q0 86 32.5 138t88 75t124.5 23t125 -23t88.5 -75t32.5 -138v-265q0 -86 -32.5 -138t-88.5 -75t-125 -23zM291 130q42 0 66 24t24 76v265q0 52 -24 76t-66 24t-65.5 -24t-23.5 -76v-265q0 -52 23.5 -76t65.5 -24zM262 798
q-19 0 -32.5 19.5t-13.5 38.5q0 25 20 35l140 65q8 3 14 3q20 0 33.5 -19t13.5 -39q0 -24 -20 -34l-140 -65q-4 -1 -7.5 -2.5t-7.5 -1.5z" />
    <glyph glyph-name="Ocircumflex" unicode="&#xd4;" horiz-adv-x="583" 
d="M291 -6q-69 0 -124.5 23t-88 75t-32.5 138v265q0 86 32.5 138t88 75t124.5 23t125 -23t88.5 -75t32.5 -138v-265q0 -86 -32.5 -138t-88.5 -75t-125 -23zM291 130q42 0 66 24t24 76v265q0 52 -24 76t-66 24t-65.5 -24t-23.5 -76v-265q0 -52 23.5 -76t65.5 -24zM177 807
q-13 0 -22 14.5t-9 31.5q0 13 6 25t19 19l104 56q10 5 17 5t17 -5l104 -56q14 -7 19.5 -19t5.5 -25q0 -17 -8.5 -31.5t-22.5 -14.5q-2 0 -5 1l-6 2l-104 56l-104 -56l-6 -2t-5 -1z" />
    <glyph glyph-name="Otilde" unicode="&#xd5;" horiz-adv-x="583" 
d="M291 -6q-69 0 -124.5 23t-88 75t-32.5 138v265q0 86 32.5 138t88 75t124.5 23t125 -23t88.5 -75t32.5 -138v-265q0 -86 -32.5 -138t-88.5 -75t-125 -23zM291 130q42 0 66 24t24 76v265q0 52 -24 76t-66 24t-65.5 -24t-23.5 -76v-265q0 -52 23.5 -76t65.5 -24zM384 817
q-35 0 -59 7t-43.5 13.5t-43.5 6.5q-21 0 -36 -5t-26.5 -10.5t-23.5 -5.5q-15 0 -23.5 10t-11.5 22t-3 17q0 27 10.5 41.5t25 21.5t28.5 8.5t21 1.5q31 0 53 -6.5t44 -13.5t49 -7q21 0 36 5.5t27 10.5t23 5q16 0 24 -10t11 -22t3 -17q0 -27 -10.5 -41.5t-25 -21.5
t-28.5 -8.5t-21 -1.5z" />
    <glyph glyph-name="Odieresis" unicode="&#xd6;" horiz-adv-x="583" 
d="M291 -6q-69 0 -124.5 23t-88 75t-32.5 138v265q0 86 32.5 138t88 75t124.5 23t125 -23t88.5 -75t32.5 -138v-265q0 -86 -32.5 -138t-88.5 -75t-125 -23zM291 130q42 0 66 24t24 76v265q0 52 -24 76t-66 24t-65.5 -24t-23.5 -76v-265q0 -52 23.5 -76t65.5 -24zM371 809
q-23 0 -40 18t-17 41t17 40.5t40 17.5t39.5 -17.5t16.5 -40.5t-16.5 -41t-39.5 -18zM211 809q-23 0 -40 18t-17 41t17 40.5t40 17.5t39.5 -17.5t16.5 -40.5t-16.5 -41t-39.5 -18z" />
    <glyph glyph-name="multiply" unicode="&#xd7;" horiz-adv-x="410" 
d="M106 104q-16 0 -32.5 11t-28 28t-11.5 34t12 29l79 69l-78 67q-11 11 -11 29q0 27 22.5 49.5t48.5 22.5q17 0 30 -11l67 -68l68 68q11 11 29 11q27 0 49.5 -22.5t22.5 -48.5q0 -19 -11 -30l-78 -67l79 -69q12 -12 12 -30q0 -17 -11 -33.5t-27.5 -27.5t-34.5 -11
q-17 0 -29 12l-69 69l-68 -69q-12 -12 -30 -12z" />
    <glyph glyph-name="Oslash" unicode="&#xd8;" horiz-adv-x="583" 
d="M291 -6q-69 0 -124.5 23t-88 75t-32.5 138v265q0 86 32.5 138t88 75t124.5 23t125 -23t88.5 -75t32.5 -138v-265q0 -86 -32.5 -138t-88.5 -75t-125 -23zM291 130q42 0 66 24t24 76v265q0 52 -24 76t-66 24t-65.5 -24t-23.5 -76v-265q0 -52 23.5 -76t65.5 -24zM130 -52
q-25 0 -40.5 17t-15.5 36q0 9 5 19l351 721q12 25 42 25q21 0 40 -14.5t19 -38.5q0 -11 -4 -19l-352 -721q-5 -11 -18 -18t-27 -7z" />
    <glyph glyph-name="Ugrave" unicode="&#xd9;" horiz-adv-x="606" 
d="M303 -6q-71 0 -128 23t-90.5 75t-33.5 138v454q0 25 24 36t54 11q29 0 53.5 -11t24.5 -36v-454q0 -51 25.5 -75.5t70.5 -24.5t70.5 24.5t25.5 75.5v454q0 25 24 36t54 11q29 0 53.5 -11t24.5 -36v-454q0 -86 -33.5 -138t-90.5 -75t-128 -23zM341 797q-4 0 -7.5 1.5
t-7.5 2.5l-140 65q-20 10 -20 34q0 20 13.5 39t33.5 19q7 0 14 -3l140 -65q20 -10 20 -35q0 -19 -13 -38.5t-33 -19.5z" />
    <glyph glyph-name="Uacute" unicode="&#xda;" horiz-adv-x="606" 
d="M303 -6q-71 0 -128 23t-90.5 75t-33.5 138v454q0 25 24 36t54 11q29 0 53.5 -11t24.5 -36v-454q0 -51 25.5 -75.5t70.5 -24.5t70.5 24.5t25.5 75.5v454q0 25 24 36t54 11q29 0 53.5 -11t24.5 -36v-454q0 -86 -33.5 -138t-90.5 -75t-128 -23zM273 798q-19 0 -32.5 19.5
t-13.5 38.5q0 25 20 35l140 65q8 3 14 3q20 0 33.5 -19t13.5 -39q0 -24 -20 -34l-140 -65q-4 -1 -7.5 -2.5t-7.5 -1.5z" />
    <glyph glyph-name="Ucircumflex" unicode="&#xdb;" horiz-adv-x="606" 
d="M303 -6q-71 0 -128 23t-90.5 75t-33.5 138v454q0 25 24 36t54 11q29 0 53.5 -11t24.5 -36v-454q0 -51 25.5 -75.5t70.5 -24.5t70.5 24.5t25.5 75.5v454q0 25 24 36t54 11q29 0 53.5 -11t24.5 -36v-454q0 -86 -33.5 -138t-90.5 -75t-128 -23zM188 807q-13 0 -22 14.5
t-9 31.5q0 13 6 25t19 19l104 56q10 5 17 5t17 -5l104 -56q14 -7 19.5 -19t5.5 -25q0 -17 -8.5 -31.5t-22.5 -14.5q-2 0 -5 1l-6 2l-104 56l-104 -56l-6 -2t-5 -1z" />
    <glyph glyph-name="Udieresis" unicode="&#xdc;" horiz-adv-x="606" 
d="M303 -6q-71 0 -128 23t-90.5 75t-33.5 138v454q0 25 24 36t54 11q29 0 53.5 -11t24.5 -36v-454q0 -51 25.5 -75.5t70.5 -24.5t70.5 24.5t25.5 75.5v454q0 25 24 36t54 11q29 0 53.5 -11t24.5 -36v-454q0 -86 -33.5 -138t-90.5 -75t-128 -23zM382 809q-23 0 -40 18t-17 41
t17 40.5t40 17.5t39.5 -17.5t16.5 -40.5t-16.5 -41t-39.5 -18zM222 809q-23 0 -40 18t-17 41t17 40.5t40 17.5t39.5 -17.5t16.5 -40.5t-16.5 -41t-39.5 -18z" />
    <glyph glyph-name="Yacute" unicode="&#xdd;" horiz-adv-x="590" 
d="M295 0q-29 0 -53.5 12t-24.5 36v251q0 8 -4 14l-207 343q-1 3 -1.5 6t-0.5 5q0 19 17.5 33t42.5 22.5t46 8.5q19 0 28 -7.5t17 -21.5l140 -257l139 257q8 14 17 21.5t28 7.5q22 0 46.5 -8.5t42 -22.5t17.5 -33v-5t-2 -6l-206 -343q-4 -6 -4 -14v-251q0 -24 -24.5 -36
t-53.5 -12zM265 798q-19 0 -32.5 19.5t-13.5 38.5q0 25 20 35l140 65q8 3 14 3q20 0 33.5 -19t13.5 -39q0 -24 -20 -34l-140 -65q-4 -1 -7.5 -2.5t-7.5 -1.5z" />
    <glyph glyph-name="Thorn" unicode="&#xde;" horiz-adv-x="529" 
d="M130 0q-33 0 -54.5 15t-21.5 33v653q0 21 21.5 34t52.5 13q35 0 58 -13t23 -34v-154q16 29 49 52.5t76 23.5q51 0 91.5 -28.5t64 -76t23.5 -105.5v-70q0 -55 -24 -103.5t-63.5 -78.5t-86.5 -30q-29 0 -55.5 11.5t-45.5 30t-29 38.5v-163q0 -18 -23 -33t-56 -15zM284 266
q20 0 36.5 11t27 29t10.5 37v70q0 19 -10 36t-27.5 28t-38.5 11q-18 0 -34.5 -9t-27.5 -25.5t-11 -40.5v-83q0 -8 9.5 -23.5t26.5 -28t39 -12.5z" />
    <glyph glyph-name="germandbls" unicode="&#xdf;" horiz-adv-x="617" 
d="M359 -20q-19 0 -36.5 1.5t-31 7.5t-21.5 20t-8 38q0 14 3.5 31t11.5 29.5t21 12.5q11 0 26 -4.5t36 -4.5q39 0 60.5 23.5t21.5 65.5v11q0 50 -15.5 77t-40.5 40t-52 22q-19 6 -30.5 17.5t-11.5 45.5q0 32 11 41t32 15q13 4 20.5 12.5t11.5 19.5t5.5 23t1.5 23
q0 36 -15 61t-54 25q-25 0 -39 -10.5t-19.5 -27t-5.5 -35.5v-513q0 -21 -23.5 -34t-55.5 -13t-54 13t-22 34v319h-49q-19 0 -28.5 17t-9.5 38q0 20 9.5 37.5t28.5 17.5h49v84q0 56 20 103t65.5 76t121.5 29q57 0 104 -20t75 -61t28 -105q0 -32 -8 -62.5t-22.5 -54
t-35.5 -34.5q37 -6 73.5 -33t61.5 -71t25 -102v-11q0 -75 -32.5 -127t-86 -79.5t-116.5 -27.5z" />
    <glyph glyph-name="agrave" unicode="&#xe0;" horiz-adv-x="484" 
d="M146 -10q-52 0 -90 32.5t-38 100.5q0 59 30 92t82.5 46t121.5 13h36v10q0 17 -7 34t-23 28.5t-45 11.5q-41 0 -61 -8t-31 -16.5t-25 -8.5q-25 0 -38.5 25t-13.5 52q0 24 27.5 42t67 28t76.5 10q82 0 132 -28t73 -72.5t23 -95.5v-238q0 -20 -21.5 -34t-54.5 -14
q-29 0 -49 14t-20 34v22q-27 -31 -63 -55.5t-89 -24.5zM213 103q16 0 33 12.5t29.5 33.5t12.5 46v4h-4q-28 0 -53.5 -3.5t-41 -15t-15.5 -35.5q0 -22 11 -32t28 -10zM261 553q-4 0 -7.5 1.5t-7.5 2.5l-140 65q-20 10 -20 34q0 20 13.5 39t33.5 19q7 0 14 -3l140 -65
q20 -10 20 -35q0 -19 -13 -38.5t-33 -19.5z" />
    <glyph glyph-name="aacute" unicode="&#xe1;" horiz-adv-x="484" 
d="M146 -10q-52 0 -90 32.5t-38 100.5q0 59 30 92t82.5 46t121.5 13h36v10q0 17 -7 34t-23 28.5t-45 11.5q-41 0 -61 -8t-31 -16.5t-25 -8.5q-25 0 -38.5 25t-13.5 52q0 24 27.5 42t67 28t76.5 10q82 0 132 -28t73 -72.5t23 -95.5v-238q0 -20 -21.5 -34t-54.5 -14
q-29 0 -49 14t-20 34v22q-27 -31 -63 -55.5t-89 -24.5zM213 103q16 0 33 12.5t29.5 33.5t12.5 46v4h-4q-28 0 -53.5 -3.5t-41 -15t-15.5 -35.5q0 -22 11 -32t28 -10zM193 554q-19 0 -32.5 19.5t-13.5 38.5q0 25 20 35l140 65q8 3 14 3q20 0 33.5 -19t13.5 -39q0 -24 -20 -34
l-140 -65q-4 -1 -7.5 -2.5t-7.5 -1.5z" />
    <glyph glyph-name="acircumflex" unicode="&#xe2;" horiz-adv-x="484" 
d="M146 -10q-52 0 -90 32.5t-38 100.5q0 59 30 92t82.5 46t121.5 13h36v10q0 17 -7 34t-23 28.5t-45 11.5q-41 0 -61 -8t-31 -16.5t-25 -8.5q-25 0 -38.5 25t-13.5 52q0 24 27.5 42t67 28t76.5 10q82 0 132 -28t73 -72.5t23 -95.5v-238q0 -20 -21.5 -34t-54.5 -14
q-29 0 -49 14t-20 34v22q-27 -31 -63 -55.5t-89 -24.5zM213 103q16 0 33 12.5t29.5 33.5t12.5 46v4h-4q-28 0 -53.5 -3.5t-41 -15t-15.5 -35.5q0 -22 11 -32t28 -10zM108 563q-13 0 -22 14.5t-9 31.5q0 13 6 25t19 19l104 56q10 5 17 5t17 -5l104 -56q14 -7 19.5 -19
t5.5 -25q0 -17 -8.5 -31.5t-22.5 -14.5q-2 0 -5 1l-6 2l-104 56l-104 -56l-6 -2t-5 -1z" />
    <glyph glyph-name="atilde" unicode="&#xe3;" horiz-adv-x="484" 
d="M146 -10q-52 0 -90 32.5t-38 100.5q0 59 30 92t82.5 46t121.5 13h36v10q0 17 -7 34t-23 28.5t-45 11.5q-41 0 -61 -8t-31 -16.5t-25 -8.5q-25 0 -38.5 25t-13.5 52q0 24 27.5 42t67 28t76.5 10q82 0 132 -28t73 -72.5t23 -95.5v-238q0 -20 -21.5 -34t-54.5 -14
q-29 0 -49 14t-20 34v22q-27 -31 -63 -55.5t-89 -24.5zM213 103q16 0 33 12.5t29.5 33.5t12.5 46v4h-4q-28 0 -53.5 -3.5t-41 -15t-15.5 -35.5q0 -22 11 -32t28 -10zM315 573q-35 0 -59 7t-43.5 13.5t-43.5 6.5q-21 0 -36 -5t-26.5 -10.5t-23.5 -5.5q-15 0 -23.5 10
t-11.5 22t-3 17q0 27 10.5 41.5t25 21.5t28.5 8.5t21 1.5q31 0 53 -6.5t44 -13.5t49 -7q21 0 36 5.5t27 10.5t23 5q16 0 24 -10t11 -22t3 -17q0 -27 -10.5 -41.5t-25 -21.5t-28.5 -8.5t-21 -1.5z" />
    <glyph glyph-name="adieresis" unicode="&#xe4;" horiz-adv-x="484" 
d="M146 -10q-52 0 -90 32.5t-38 100.5q0 59 30 92t82.5 46t121.5 13h36v10q0 17 -7 34t-23 28.5t-45 11.5q-41 0 -61 -8t-31 -16.5t-25 -8.5q-25 0 -38.5 25t-13.5 52q0 24 27.5 42t67 28t76.5 10q82 0 132 -28t73 -72.5t23 -95.5v-238q0 -20 -21.5 -34t-54.5 -14
q-29 0 -49 14t-20 34v22q-27 -31 -63 -55.5t-89 -24.5zM213 103q16 0 33 12.5t29.5 33.5t12.5 46v4h-4q-28 0 -53.5 -3.5t-41 -15t-15.5 -35.5q0 -22 11 -32t28 -10zM302 565q-23 0 -40 18t-17 41t17 40.5t40 17.5t39.5 -17.5t16.5 -40.5t-16.5 -41t-39.5 -18zM142 565
q-23 0 -40 18t-17 41t17 40.5t40 17.5t39.5 -17.5t16.5 -40.5t-16.5 -41t-39.5 -18z" />
    <glyph glyph-name="aring" unicode="&#xe5;" horiz-adv-x="484" 
d="M146 -10q-52 0 -90 32.5t-38 100.5q0 59 30 92t82.5 46t121.5 13h36v10q0 17 -7 34t-23 28.5t-45 11.5q-41 0 -61 -8t-31 -16.5t-25 -8.5q-25 0 -38.5 25t-13.5 52q0 24 27.5 42t67 28t76.5 10q82 0 132 -28t73 -72.5t23 -95.5v-238q0 -20 -21.5 -34t-54.5 -14
q-29 0 -49 14t-20 34v22q-27 -31 -63 -55.5t-89 -24.5zM213 103q16 0 33 12.5t29.5 33.5t12.5 46v4h-4q-28 0 -53.5 -3.5t-41 -15t-15.5 -35.5q0 -22 11 -32t28 -10zM222 555q-26 0 -49 14.5t-36.5 38t-13.5 50.5q0 26 13.5 49t36 37.5t49.5 14.5t50 -14t37 -37t14 -50
t-14 -50.5t-37 -38t-50 -14.5zM223 615q17 0 28 13t11 29q0 15 -11 27t-28 12t-29 -12.5t-12 -26.5q0 -15 12 -28.5t29 -13.5z" />
    <glyph glyph-name="ae" unicode="&#xe6;" horiz-adv-x="756" 
d="M175 -10q-42 0 -78 14.5t-58 44t-22 74.5q0 59 30 92t82.5 46t121.5 13h36v10q0 17 -7 34t-23 28.5t-45 11.5q-41 0 -61 -8t-31 -16.5t-25 -8.5q-25 0 -38.5 25t-13.5 52q0 24 27.5 42t67 28t76.5 10q54 0 93 -19.5t65 -52.5q29 33 66 52.5t79 19.5q43 0 82 -13.5t69 -39
t47 -60.5t17 -77q0 -45 -14.5 -64.5t-37 -24t-45.5 -4.5h-193v-6q0 -37 28 -59.5t74 -22.5q31 0 53 9.5t39 18.5t33 9q18 0 30.5 -12t19.5 -28t7 -28q0 -19 -23 -40t-64.5 -35.5t-98.5 -14.5q-59 0 -107.5 25t-81.5 69q-36 -41 -82.5 -67.5t-93.5 -26.5zM212 103
q16 0 33 12.5t29.5 33.5t12.5 46v4h-4q-28 0 -53.5 -3.5t-41 -15t-15.5 -35.5q0 -22 11 -32t28 -10zM442 286h124q11 0 16 5t5 19q0 20 -10.5 33.5t-27 20t-35.5 6.5q-18 0 -34.5 -6.5t-27 -20t-10.5 -33.5v-24z" />
    <glyph glyph-name="ccedilla" unicode="&#xe7;" horiz-adv-x="442" 
d="M255 -10q-79 0 -129.5 28t-74 76t-23.5 108v68q0 60 23.5 108t73.5 76t128 28q49 0 87 -11.5t60 -30.5t22 -41q0 -14 -7.5 -32t-21 -31t-31.5 -13q-12 0 -23.5 6t-28.5 12t-44 6q-45 0 -64 -20t-19 -57v-68q0 -37 19 -57t65 -20q27 0 43 7t27.5 13.5t24.5 6.5
q21 0 36 -12t22.5 -29.5t7.5 -32.5q0 -22 -23 -42.5t-62 -33t-88 -12.5zM260 -219q-18 0 -38.5 3.5t-35 10.5t-14.5 17q0 4 2.5 14t8.5 19t15 9t21.5 -7t36.5 -7q20 0 33 7.5t13 23.5q0 13 -10 22.5t-33 11.5l-62 6l29 98h64l-19 -56q51 -2 75.5 -24.5t24.5 -54.5
q0 -17 -9.5 -39t-33.5 -38t-68 -16z" />
    <glyph glyph-name="egrave" unicode="&#xe8;" horiz-adv-x="496" 
d="M280 -10q-74 0 -131 26.5t-89.5 74.5t-32.5 111v73q0 56 31 103t83 75.5t116 28.5q58 0 106.5 -24t78.5 -66.5t30 -99.5q0 -45 -14.5 -64.5t-37 -24t-45.5 -4.5h-193v-6q0 -37 28 -59.5t74 -22.5q31 0 53 9.5t39 18.5t33 9q18 0 31 -12t19.5 -28t6.5 -28q0 -19 -23 -40
t-64.5 -35.5t-98.5 -14.5zM182 286h124q11 0 16 5t5 19q0 20 -10.5 33.5t-27 20t-35.5 6.5q-18 0 -34.5 -6.5t-27 -20t-10.5 -33.5v-24zM295 557q-4 0 -7.5 1.5t-7.5 2.5l-140 65q-20 10 -20 34q0 20 13.5 39t33.5 19q7 0 14 -3l140 -65q20 -10 20 -35q0 -19 -13 -38.5
t-33 -19.5z" />
    <glyph glyph-name="eacute" unicode="&#xe9;" horiz-adv-x="496" 
d="M280 -10q-74 0 -131 26.5t-89.5 74.5t-32.5 111v73q0 56 31 103t83 75.5t116 28.5q58 0 106.5 -24t78.5 -66.5t30 -99.5q0 -45 -14.5 -64.5t-37 -24t-45.5 -4.5h-193v-6q0 -37 28 -59.5t74 -22.5q31 0 53 9.5t39 18.5t33 9q18 0 31 -12t19.5 -28t6.5 -28q0 -19 -23 -40
t-64.5 -35.5t-98.5 -14.5zM182 286h124q11 0 16 5t5 19q0 20 -10.5 33.5t-27 20t-35.5 6.5q-18 0 -34.5 -6.5t-27 -20t-10.5 -33.5v-24zM227 558q-19 0 -32.5 19.5t-13.5 38.5q0 25 20 35l140 65q8 3 14 3q20 0 33.5 -19t13.5 -39q0 -24 -20 -34l-140 -65q-4 -1 -7.5 -2.5
t-7.5 -1.5z" />
    <glyph glyph-name="ecircumflex" unicode="&#xea;" horiz-adv-x="496" 
d="M280 -10q-74 0 -131 26.5t-89.5 74.5t-32.5 111v73q0 56 31 103t83 75.5t116 28.5q58 0 106.5 -24t78.5 -66.5t30 -99.5q0 -45 -14.5 -64.5t-37 -24t-45.5 -4.5h-193v-6q0 -37 28 -59.5t74 -22.5q31 0 53 9.5t39 18.5t33 9q18 0 31 -12t19.5 -28t6.5 -28q0 -19 -23 -40
t-64.5 -35.5t-98.5 -14.5zM182 286h124q11 0 16 5t5 19q0 20 -10.5 33.5t-27 20t-35.5 6.5q-18 0 -34.5 -6.5t-27 -20t-10.5 -33.5v-24zM142 567q-13 0 -22 14.5t-9 31.5q0 13 6 25t19 19l104 56q10 5 17 5t17 -5l104 -56q14 -7 19.5 -19t5.5 -25q0 -17 -8.5 -31.5
t-22.5 -14.5q-2 0 -5 1l-6 2l-104 56l-104 -56l-6 -2t-5 -1z" />
    <glyph glyph-name="edieresis" unicode="&#xeb;" horiz-adv-x="496" 
d="M280 -10q-74 0 -131 26.5t-89.5 74.5t-32.5 111v73q0 56 31 103t83 75.5t116 28.5q58 0 106.5 -24t78.5 -66.5t30 -99.5q0 -45 -14.5 -64.5t-37 -24t-45.5 -4.5h-193v-6q0 -37 28 -59.5t74 -22.5q31 0 53 9.5t39 18.5t33 9q18 0 31 -12t19.5 -28t6.5 -28q0 -19 -23 -40
t-64.5 -35.5t-98.5 -14.5zM182 286h124q11 0 16 5t5 19q0 20 -10.5 33.5t-27 20t-35.5 6.5q-18 0 -34.5 -6.5t-27 -20t-10.5 -33.5v-24zM336 569q-23 0 -40 18t-17 41t17 40.5t40 17.5t39.5 -17.5t16.5 -40.5t-16.5 -41t-39.5 -18zM176 569q-23 0 -40 18t-17 41t17 40.5
t40 17.5t39.5 -17.5t16.5 -40.5t-16.5 -41t-39.5 -18z" />
    <glyph glyph-name="igrave" unicode="&#xec;" horiz-adv-x="244" 
d="M122 0q-34 0 -55.5 15t-21.5 33v381q0 21 21.5 34t55.5 13q32 0 55 -13t23 -34v-381q0 -18 -23 -33t-55 -15zM160 556q-4 0 -7.5 1.5t-7.5 2.5l-140 65q-20 10 -20 34q0 20 13.5 39t33.5 19q7 0 14 -3l140 -65q20 -10 20 -35q0 -19 -13 -38.5t-33 -19.5z" />
    <glyph glyph-name="iacute" unicode="&#xed;" horiz-adv-x="244" 
d="M122 0q-34 0 -55.5 15t-21.5 33v381q0 21 21.5 34t55.5 13q32 0 55 -13t23 -34v-381q0 -18 -23 -33t-55 -15zM92 557q-19 0 -32.5 19.5t-13.5 38.5q0 25 20 35l140 65q8 3 14 3q20 0 33.5 -19t13.5 -39q0 -24 -20 -34l-140 -65q-4 -1 -7.5 -2.5t-7.5 -1.5z" />
    <glyph glyph-name="icircumflex" unicode="&#xee;" horiz-adv-x="244" 
d="M122 0q-34 0 -55.5 15t-21.5 33v381q0 21 21.5 34t55.5 13q32 0 55 -13t23 -34v-381q0 -18 -23 -33t-55 -15zM7 566q-13 0 -22 14.5t-9 31.5q0 13 6 25t19 19l104 56q10 5 17 5t17 -5l104 -56q14 -7 19.5 -19t5.5 -25q0 -17 -8.5 -31.5t-22.5 -14.5q-2 0 -5 1l-6 2
l-104 56l-104 -56l-6 -2t-5 -1z" />
    <glyph glyph-name="idieresis" unicode="&#xef;" horiz-adv-x="244" 
d="M122 0q-34 0 -55.5 15t-21.5 33v381q0 21 21.5 34t55.5 13q32 0 55 -13t23 -34v-381q0 -18 -23 -33t-55 -15zM201 568q-23 0 -40 18t-17 41t17 40.5t40 17.5t39.5 -17.5t16.5 -40.5t-16.5 -41t-39.5 -18zM41 568q-23 0 -40 18t-17 41t17 40.5t40 17.5t39.5 -17.5
t16.5 -40.5t-16.5 -41t-39.5 -18z" />
    <glyph glyph-name="eth" unicode="&#xf0;" horiz-adv-x="525" 
d="M257 -10q-46 0 -87.5 17.5t-73.5 47t-50.5 67.5t-18.5 80v70q0 58 24 105.5t64 76t89 28.5q31 0 55.5 -11t43 -28t28.5 -37q0 35 -10 68t-25 61l-41 -25q-5 -4 -14 -4q-19 0 -36 20t-17 41q0 18 16 28l33 20q-1 2 -4 4t-5 4q-10 11 -20.5 22t-10.5 30q0 13 7 30.5
t23.5 30.5t44.5 13t52.5 -14t45.5 -39l49 30q7 4 15 4q20 0 36 -20t16 -40q0 -19 -16 -29l-47 -29q31 -64 47 -137.5t16 -131.5v-141q0 -56 -31.5 -104.5t-83.5 -78t-114 -29.5zM257 125q21 0 37.5 11t26.5 28.5t10 37.5v70q0 24 -11.5 40.5t-29 25.5t-35.5 9q-20 0 -37 -11
t-26.5 -28t-9.5 -36v-70q0 -20 10 -37.5t27.5 -28.5t37.5 -11z" />
    <glyph glyph-name="ntilde" unicode="&#xf1;" horiz-adv-x="534" 
d="M122 0q-34 0 -55.5 15t-21.5 33v381q0 21 21.5 34t55.5 13q28 0 48 -13t20 -34v-23q14 29 49 52.5t85 23.5q46 0 84.5 -28.5t62 -76t23.5 -105.5v-224q0 -24 -24.5 -36t-53.5 -12q-27 0 -52 12t-25 36v224q0 19 -9.5 36t-26 28t-36.5 11q-16 0 -31.5 -9t-25.5 -25.5
t-10 -40.5v-224q0 -18 -23 -33t-55 -15zM359 562q-35 0 -59 7t-43.5 13.5t-43.5 6.5q-21 0 -36 -5t-26.5 -10.5t-23.5 -5.5q-15 0 -23.5 10t-11.5 22t-3 17q0 27 10.5 41.5t25 21.5t28.5 8.5t21 1.5q31 0 53 -6.5t44 -13.5t49 -7q21 0 36 5.5t27 10.5t23 5q16 0 24 -10
t11 -22t3 -17q0 -27 -10.5 -41.5t-25 -21.5t-28.5 -8.5t-21 -1.5z" />
    <glyph glyph-name="ograve" unicode="&#xf2;" horiz-adv-x="509" 
d="M254 -10q-61 0 -112.5 29.5t-83 78t-31.5 104.5v70q0 56 30.5 104t82.5 77t114 29q61 0 113 -28.5t83.5 -76t31.5 -105.5v-70q0 -55 -31.5 -103.5t-83.5 -78.5t-113 -30zM254 125q20 0 36.5 11t26.5 28.5t10 37.5v70q0 19 -10 36t-26.5 28t-36.5 11t-36.5 -11t-26 -28
t-9.5 -36v-70q0 -20 9.5 -37.5t26 -28.5t36.5 -11zM292 556q-4 0 -7.5 1.5t-7.5 2.5l-140 65q-20 10 -20 34q0 20 13.5 39t33.5 19q7 0 14 -3l140 -65q20 -10 20 -35q0 -19 -13 -38.5t-33 -19.5z" />
    <glyph glyph-name="oacute" unicode="&#xf3;" horiz-adv-x="509" 
d="M254 -10q-61 0 -112.5 29.5t-83 78t-31.5 104.5v70q0 56 30.5 104t82.5 77t114 29q61 0 113 -28.5t83.5 -76t31.5 -105.5v-70q0 -55 -31.5 -103.5t-83.5 -78.5t-113 -30zM254 125q20 0 36.5 11t26.5 28.5t10 37.5v70q0 19 -10 36t-26.5 28t-36.5 11t-36.5 -11t-26 -28
t-9.5 -36v-70q0 -20 9.5 -37.5t26 -28.5t36.5 -11zM224 557q-19 0 -32.5 19.5t-13.5 38.5q0 25 20 35l140 65q8 3 14 3q20 0 33.5 -19t13.5 -39q0 -24 -20 -34l-140 -65q-4 -1 -7.5 -2.5t-7.5 -1.5z" />
    <glyph glyph-name="ocircumflex" unicode="&#xf4;" horiz-adv-x="509" 
d="M254 -10q-61 0 -112.5 29.5t-83 78t-31.5 104.5v70q0 56 30.5 104t82.5 77t114 29q61 0 113 -28.5t83.5 -76t31.5 -105.5v-70q0 -55 -31.5 -103.5t-83.5 -78.5t-113 -30zM254 125q20 0 36.5 11t26.5 28.5t10 37.5v70q0 19 -10 36t-26.5 28t-36.5 11t-36.5 -11t-26 -28
t-9.5 -36v-70q0 -20 9.5 -37.5t26 -28.5t36.5 -11zM139 566q-13 0 -22 14.5t-9 31.5q0 13 6 25t19 19l104 56q10 5 17 5t17 -5l104 -56q14 -7 19.5 -19t5.5 -25q0 -17 -8.5 -31.5t-22.5 -14.5q-2 0 -5 1l-6 2l-104 56l-104 -56l-6 -2t-5 -1z" />
    <glyph glyph-name="otilde" unicode="&#xf5;" horiz-adv-x="509" 
d="M254 -10q-61 0 -112.5 29.5t-83 78t-31.5 104.5v70q0 56 30.5 104t82.5 77t114 29q61 0 113 -28.5t83.5 -76t31.5 -105.5v-70q0 -55 -31.5 -103.5t-83.5 -78.5t-113 -30zM254 125q20 0 36.5 11t26.5 28.5t10 37.5v70q0 19 -10 36t-26.5 28t-36.5 11t-36.5 -11t-26 -28
t-9.5 -36v-70q0 -20 9.5 -37.5t26 -28.5t36.5 -11zM348 580q-35 0 -59 7t-43.5 13.5t-43.5 6.5q-21 0 -36 -5t-26.5 -10.5t-23.5 -5.5q-15 0 -23.5 10t-11.5 22t-3 17q0 27 10.5 41.5t25 21.5t28.5 8.5t21 1.5q31 0 53 -6.5t44 -13.5t49 -7q21 0 36 5.5t27 10.5t23 5
q16 0 24 -10t11 -22t3 -17q0 -27 -10.5 -41.5t-25 -21.5t-28.5 -8.5t-21 -1.5z" />
    <glyph glyph-name="odieresis" unicode="&#xf6;" horiz-adv-x="509" 
d="M254 -10q-61 0 -112.5 29.5t-83 78t-31.5 104.5v70q0 56 30.5 104t82.5 77t114 29q61 0 113 -28.5t83.5 -76t31.5 -105.5v-70q0 -55 -31.5 -103.5t-83.5 -78.5t-113 -30zM254 125q20 0 36.5 11t26.5 28.5t10 37.5v70q0 19 -10 36t-26.5 28t-36.5 11t-36.5 -11t-26 -28
t-9.5 -36v-70q0 -20 9.5 -37.5t26 -28.5t36.5 -11zM333 568q-23 0 -40 18t-17 41t17 40.5t40 17.5t39.5 -17.5t16.5 -40.5t-16.5 -41t-39.5 -18zM173 568q-23 0 -40 18t-17 41t17 40.5t40 17.5t39.5 -17.5t16.5 -40.5t-16.5 -41t-39.5 -18z" />
    <glyph glyph-name="divide" unicode="&#xf7;" horiz-adv-x="455" 
d="M69 229q-22 0 -35.5 16t-13.5 43q0 26 13.5 43t35.5 17h316q19 0 34.5 -17t15.5 -43q0 -27 -15.5 -43t-34.5 -16h-316zM224 52q-26 0 -46.5 19.5t-20.5 44.5q0 28 20.5 45.5t46.5 17.5q24 0 45 -17.5t21 -45.5q0 -25 -21 -44.5t-45 -19.5zM224 398q-26 0 -46.5 18
t-20.5 45q0 26 20.5 45t46.5 19q24 0 45 -19t21 -45q0 -27 -21 -45t-45 -18z" />
    <glyph glyph-name="oslash" unicode="&#xf8;" horiz-adv-x="509" 
d="M254 -10q-61 0 -112.5 29.5t-83 78t-31.5 104.5v70q0 56 30.5 104t82.5 77t114 29q61 0 113 -28.5t83.5 -76t31.5 -105.5v-70q0 -55 -31.5 -103.5t-83.5 -78.5t-113 -30zM254 125q20 0 36.5 11t26.5 28.5t10 37.5v70q0 19 -10 36t-26.5 28t-36.5 11t-36.5 -11t-26 -28
t-9.5 -36v-70q0 -20 9.5 -37.5t26 -28.5t36.5 -11zM72 -32q-11 0 -21 9t-10 21q0 9 7 18l36 48l291 385l36 48q9 13 22 13q14 0 23.5 -9.5t9.5 -22.5q0 -10 -8 -21l-35 -46l-295 -384l-39 -51q-6 -8 -17 -8z" />
    <glyph glyph-name="ugrave" unicode="&#xf9;" horiz-adv-x="535" 
d="M268 -10q-62 0 -114 29.5t-83 77.5t-31 103v228q0 18 23 33t55 15q31 0 54 -15t23 -33v-228q0 -19 10 -36t26.5 -28t36.5 -11t36.5 11t26 28t9.5 36v229q0 19 23.5 33t54.5 14q34 0 55.5 -14t21.5 -33v-229q0 -56 -31 -104t-82.5 -77t-113.5 -29zM306 542q-4 0 -7.5 1.5
t-7.5 2.5l-140 65q-20 10 -20 34q0 20 13.5 39t33.5 19q7 0 14 -3l140 -65q20 -10 20 -35q0 -19 -13 -38.5t-33 -19.5z" />
    <glyph glyph-name="uacute" unicode="&#xfa;" horiz-adv-x="535" 
d="M268 -10q-62 0 -114 29.5t-83 77.5t-31 103v228q0 18 23 33t55 15q31 0 54 -15t23 -33v-228q0 -19 10 -36t26.5 -28t36.5 -11t36.5 11t26 28t9.5 36v229q0 19 23.5 33t54.5 14q34 0 55.5 -14t21.5 -33v-229q0 -56 -31 -104t-82.5 -77t-113.5 -29zM238 543
q-19 0 -32.5 19.5t-13.5 38.5q0 25 20 35l140 65q8 3 14 3q20 0 33.5 -19t13.5 -39q0 -24 -20 -34l-140 -65q-4 -1 -7.5 -2.5t-7.5 -1.5z" />
    <glyph glyph-name="ucircumflex" unicode="&#xfb;" horiz-adv-x="535" 
d="M268 -10q-62 0 -114 29.5t-83 77.5t-31 103v228q0 18 23 33t55 15q31 0 54 -15t23 -33v-228q0 -19 10 -36t26.5 -28t36.5 -11t36.5 11t26 28t9.5 36v229q0 19 23.5 33t54.5 14q34 0 55.5 -14t21.5 -33v-229q0 -56 -31 -104t-82.5 -77t-113.5 -29zM153 552q-13 0 -22 14.5
t-9 31.5q0 13 6 25t19 19l104 56q10 5 17 5t17 -5l104 -56q14 -7 19.5 -19t5.5 -25q0 -17 -8.5 -31.5t-22.5 -14.5q-2 0 -5 1l-6 2l-104 56l-104 -56l-6 -2t-5 -1z" />
    <glyph glyph-name="udieresis" unicode="&#xfc;" horiz-adv-x="535" 
d="M268 -10q-62 0 -114 29.5t-83 77.5t-31 103v228q0 18 23 33t55 15q31 0 54 -15t23 -33v-228q0 -19 10 -36t26.5 -28t36.5 -11t36.5 11t26 28t9.5 36v229q0 19 23.5 33t54.5 14q34 0 55.5 -14t21.5 -33v-229q0 -56 -31 -104t-82.5 -77t-113.5 -29zM347 554q-23 0 -40 18
t-17 41t17 40.5t40 17.5t39.5 -17.5t16.5 -40.5t-16.5 -41t-39.5 -18zM187 554q-23 0 -40 18t-17 41t17 40.5t40 17.5t39.5 -17.5t16.5 -40.5t-16.5 -41t-39.5 -18z" />
    <glyph glyph-name="yacute" unicode="&#xfd;" horiz-adv-x="496" 
d="M72 -217q-30 0 -50.5 11t-20.5 55q0 26 8.5 45t29.5 19q14 0 37 2.5t47.5 14t41 38t16.5 73.5l-175 348q-5 10 -5 20q0 20 18 37t42.5 27t44.5 10q14 0 26 -5.5t17 -19.5l113 -271l83 271q5 14 16.5 19.5t23.5 5.5q18 0 43.5 -10.5t44.5 -27.5t19 -39q0 -10 -4 -17
l-142 -354q-19 -47 -36 -92t-43.5 -81t-72.5 -57.5t-122 -21.5zM218 543q-19 0 -32.5 19.5t-13.5 38.5q0 25 20 35l140 65q8 3 14 3q20 0 33.5 -19t13.5 -39q0 -24 -20 -34l-140 -65q-4 -1 -7.5 -2.5t-7.5 -1.5z" />
    <glyph glyph-name="thorn" unicode="&#xfe;" horiz-adv-x="533" 
d="M122 -217q-33 0 -54.5 15t-21.5 33v870q0 21 21.5 34t52.5 13q35 0 58 -13t23 -34v-295q16 29 49 52.5t76 23.5q51 0 91.5 -28.5t64 -76t23.5 -105.5v-70q0 -55 -24 -103.5t-63.5 -78.5t-86.5 -30q-44 0 -80 24.5t-50 55.5v-239q0 -18 -23 -33t-56 -15zM276 125
q20 0 36.5 11t27 29t10.5 37v70q0 19 -10 36t-27.5 28t-38.5 11q-18 0 -34.5 -9t-27.5 -25.5t-11 -40.5v-83q0 -8 9.5 -23.5t26.5 -28t39 -12.5z" />
    <glyph glyph-name="ydieresis" unicode="&#xff;" horiz-adv-x="496" 
d="M72 -217q-30 0 -50.5 11t-20.5 55q0 26 8.5 45t29.5 19q14 0 37 2.5t47.5 14t41 38t16.5 73.5l-175 348q-5 10 -5 20q0 20 18 37t42.5 27t44.5 10q14 0 26 -5.5t17 -19.5l113 -271l83 271q5 14 16.5 19.5t23.5 5.5q18 0 43.5 -10.5t44.5 -27.5t19 -39q0 -10 -4 -17
l-142 -354q-19 -47 -36 -92t-43.5 -81t-72.5 -57.5t-122 -21.5zM327 554q-23 0 -40 18t-17 41t17 40.5t40 17.5t39.5 -17.5t16.5 -40.5t-16.5 -41t-39.5 -18zM167 554q-23 0 -40 18t-17 41t17 40.5t40 17.5t39.5 -17.5t16.5 -40.5t-16.5 -41t-39.5 -18z" />
    <glyph glyph-name="Amacron" unicode="&#x100;" horiz-adv-x="589" 
d="M104 0q-21 0 -44.5 8.5t-39.5 23t-16 32.5q0 3 2 11l186 610q8 26 38 39t64 13q35 0 64.5 -13t37.5 -39l187 -610q2 -8 2 -11q0 -18 -16 -32.5t-39 -23t-45 -8.5q-19 0 -32.5 6.5t-18.5 22.5l-34 125h-211l-34 -125q-4 -16 -18 -22.5t-33 -6.5zM221 274h146l-73 268z
M194 839q-21 0 -34 13.5t-13 35.5q0 21 13 35.5t34 14.5h200q18 0 33 -14.5t15 -35.5q0 -22 -15 -35.5t-33 -13.5h-200z" />
    <glyph glyph-name="amacron" unicode="&#x101;" horiz-adv-x="484" 
d="M146 -10q-52 0 -90 32.5t-38 100.5q0 59 30 92t82.5 46t121.5 13h36v10q0 17 -7 34t-23 28.5t-45 11.5q-41 0 -61 -8t-31 -16.5t-25 -8.5q-25 0 -38.5 25t-13.5 52q0 24 27.5 42t67 28t76.5 10q82 0 132 -28t73 -72.5t23 -95.5v-238q0 -20 -21.5 -34t-54.5 -14
q-29 0 -49 14t-20 34v22q-27 -31 -63 -55.5t-89 -24.5zM213 103q16 0 33 12.5t29.5 33.5t12.5 46v4h-4q-28 0 -53.5 -3.5t-41 -15t-15.5 -35.5q0 -22 11 -32t28 -10zM122 595q-21 0 -34 13.5t-13 35.5q0 21 13 35.5t34 14.5h200q18 0 33 -14.5t15 -35.5q0 -22 -15 -35.5
t-33 -13.5h-200z" />
    <glyph glyph-name="Abreve" unicode="&#x102;" horiz-adv-x="589" 
d="M104 0q-21 0 -44.5 8.5t-39.5 23t-16 32.5q0 3 2 11l186 610q8 26 38 39t64 13q35 0 64.5 -13t37.5 -39l187 -610q2 -8 2 -11q0 -18 -16 -32.5t-39 -23t-45 -8.5q-19 0 -32.5 6.5t-18.5 22.5l-34 125h-211l-34 -125q-4 -16 -18 -22.5t-33 -6.5zM221 274h146l-73 268z
M295 824q-46 0 -85 31t-51 76q-4 15 4.5 23.5t23.5 8.5h20q14 0 21 -7t12 -20q7 -21 23 -33.5t32 -12.5q17 0 32 12.5t22 33.5q5 13 12.5 20t20.5 7h20q15 0 23.5 -8.5t4.5 -24.5q-13 -44 -51.5 -75t-83.5 -31z" />
    <glyph glyph-name="abreve" unicode="&#x103;" horiz-adv-x="484" 
d="M146 -10q-52 0 -90 32.5t-38 100.5q0 59 30 92t82.5 46t121.5 13h36v10q0 17 -7 34t-23 28.5t-45 11.5q-41 0 -61 -8t-31 -16.5t-25 -8.5q-25 0 -38.5 25t-13.5 52q0 24 27.5 42t67 28t76.5 10q82 0 132 -28t73 -72.5t23 -95.5v-238q0 -20 -21.5 -34t-54.5 -14
q-29 0 -49 14t-20 34v22q-27 -31 -63 -55.5t-89 -24.5zM213 103q16 0 33 12.5t29.5 33.5t12.5 46v4h-4q-28 0 -53.5 -3.5t-41 -15t-15.5 -35.5q0 -22 11 -32t28 -10zM223 580q-46 0 -85 31t-51 76q-4 15 4.5 23.5t23.5 8.5h20q14 0 21 -7t12 -20q7 -21 23 -33.5t32 -12.5
q17 0 32 12.5t22 33.5q5 13 12.5 20t20.5 7h20q15 0 23.5 -8.5t4.5 -24.5q-13 -44 -51.5 -75t-83.5 -31z" />
    <glyph glyph-name="Aogonek" unicode="&#x104;" horiz-adv-x="589" 
d="M104 0q-21 0 -44.5 8.5t-39.5 23t-16 32.5q0 3 2 11l186 610q8 26 38 39t64 13q35 0 64.5 -13t37.5 -39l187 -610q2 -8 2 -11q0 -18 -16 -32.5t-39 -23t-45 -8.5q-19 0 -32.5 6.5t-18.5 22.5l-34 125h-211l-34 -125q-4 -16 -18 -22.5t-33 -6.5zM221 274h146l-73 268z
M518 -218q-44 0 -71.5 13t-40.5 35.5t-13 48.5q0 40 26.5 82t72.5 67l53 -19q-34 -19 -56.5 -53t-22.5 -63q0 -21 13.5 -34.5t44.5 -13.5q14 0 19.5 -11.5t5.5 -22.5t-5.5 -20t-25.5 -9z" />
    <glyph glyph-name="aogonek" unicode="&#x105;" horiz-adv-x="484" 
d="M146 -10q-52 0 -90 32.5t-38 100.5q0 59 30 92t82.5 46t121.5 13h36v10q0 17 -7 34t-23 28.5t-45 11.5q-41 0 -61 -8t-31 -16.5t-25 -8.5q-25 0 -38.5 25t-13.5 52q0 24 27.5 42t67 28t76.5 10q82 0 132 -28t73 -72.5t23 -95.5v-238q0 -20 -21.5 -34t-54.5 -14
q-29 0 -49 14t-20 34v22q-27 -31 -63 -55.5t-89 -24.5zM213 103q16 0 33 12.5t29.5 33.5t12.5 46v4h-4q-28 0 -53.5 -3.5t-41 -15t-15.5 -35.5q0 -22 11 -32t28 -10zM381 -218q-44 0 -71.5 13t-40.5 35.5t-13 48.5q0 40 26.5 82t72.5 67l53 -19q-34 -19 -56.5 -53t-22.5 -63
q0 -21 13.5 -34.5t44.5 -13.5q14 0 19.5 -11.5t5.5 -22.5t-5.5 -20t-25.5 -9z" />
    <glyph glyph-name="Cacute" unicode="&#x106;" horiz-adv-x="562" 
d="M286 -6q-65 0 -120 23t-87.5 75t-32.5 138v265q0 86 32.5 138t87.5 75t120 23q72 0 128.5 -23.5t89.5 -67.5t33 -108q0 -45 -19 -59.5t-59 -14.5q-31 0 -53.5 10t-24.5 37q0 10 -2.5 25t-10.5 30t-26 25t-50 10q-43 0 -66.5 -24.5t-23.5 -75.5v-265q0 -51 24 -75.5
t67 -24.5q30 0 47.5 10t25.5 25.5t11 32.5t4 32q2 28 24.5 37.5t52.5 9.5q41 0 60 -14.5t19 -59.5q0 -66 -33 -113t-89.5 -71.5t-128.5 -24.5zM251 798q-19 0 -32.5 19.5t-13.5 38.5q0 25 20 35l140 65q8 3 14 3q20 0 33.5 -19t13.5 -39q0 -24 -20 -34l-140 -65
q-4 -1 -7.5 -2.5t-7.5 -1.5z" />
    <glyph glyph-name="cacute" unicode="&#x107;" horiz-adv-x="442" 
d="M255 -10q-79 0 -129.5 28t-74 76t-23.5 108v68q0 60 23.5 108t73.5 76t128 28q49 0 87 -11.5t60 -30.5t22 -41q0 -14 -7.5 -32t-21 -31t-31.5 -13q-12 0 -23.5 6t-28.5 12t-44 6q-45 0 -64 -20t-19 -57v-68q0 -37 19 -57t65 -20q27 0 43 7t27.5 13.5t24.5 6.5
q21 0 36 -12t22.5 -29.5t7.5 -32.5q0 -22 -23 -42.5t-62 -33t-88 -12.5zM221 559q-19 0 -32.5 19.5t-13.5 38.5q0 25 20 35l140 65q8 3 14 3q20 0 33.5 -19t13.5 -39q0 -24 -20 -34l-140 -65q-4 -1 -7.5 -2.5t-7.5 -1.5z" />
    <glyph glyph-name="Ccircumflex" unicode="&#x108;" horiz-adv-x="562" 
d="M286 -6q-65 0 -120 23t-87.5 75t-32.5 138v265q0 86 32.5 138t87.5 75t120 23q72 0 128.5 -23.5t89.5 -67.5t33 -108q0 -45 -19 -59.5t-59 -14.5q-31 0 -53.5 10t-24.5 37q0 10 -2.5 25t-10.5 30t-26 25t-50 10q-43 0 -66.5 -24.5t-23.5 -75.5v-265q0 -51 24 -75.5
t67 -24.5q30 0 47.5 10t25.5 25.5t11 32.5t4 32q2 28 24.5 37.5t52.5 9.5q41 0 60 -14.5t19 -59.5q0 -66 -33 -113t-89.5 -71.5t-128.5 -24.5zM166 807q-13 0 -22 14.5t-9 31.5q0 13 6 25t19 19l104 56q10 5 17 5t17 -5l104 -56q14 -7 19.5 -19t5.5 -25q0 -17 -8.5 -31.5
t-22.5 -14.5q-2 0 -5 1l-6 2l-104 56l-104 -56l-6 -2t-5 -1z" />
    <glyph glyph-name="ccircumflex" unicode="&#x109;" horiz-adv-x="442" 
d="M255 -10q-79 0 -129.5 28t-74 76t-23.5 108v68q0 60 23.5 108t73.5 76t128 28q49 0 87 -11.5t60 -30.5t22 -41q0 -14 -7.5 -32t-21 -31t-31.5 -13q-12 0 -23.5 6t-28.5 12t-44 6q-45 0 -64 -20t-19 -57v-68q0 -37 19 -57t65 -20q27 0 43 7t27.5 13.5t24.5 6.5
q21 0 36 -12t22.5 -29.5t7.5 -32.5q0 -22 -23 -42.5t-62 -33t-88 -12.5zM136 568q-13 0 -22 14.5t-9 31.5q0 13 6 25t19 19l104 56q10 5 17 5t17 -5l104 -56q14 -7 19.5 -19t5.5 -25q0 -17 -8.5 -31.5t-22.5 -14.5q-2 0 -5 1l-6 2l-104 56l-104 -56l-6 -2t-5 -1z" />
    <glyph glyph-name="Cdotaccent" unicode="&#x10a;" horiz-adv-x="562" 
d="M286 -6q-65 0 -120 23t-87.5 75t-32.5 138v265q0 86 32.5 138t87.5 75t120 23q72 0 128.5 -23.5t89.5 -67.5t33 -108q0 -45 -19 -59.5t-59 -14.5q-31 0 -53.5 10t-24.5 37q0 10 -2.5 25t-10.5 30t-26 25t-50 10q-43 0 -66.5 -24.5t-23.5 -75.5v-265q0 -51 24 -75.5
t67 -24.5q30 0 47.5 10t25.5 25.5t11 32.5t4 32q2 28 24.5 37.5t52.5 9.5q41 0 60 -14.5t19 -59.5q0 -66 -33 -113t-89.5 -71.5t-128.5 -24.5zM281 809q-23 0 -40 18t-17 41t17 40.5t40 17.5t39.5 -17.5t16.5 -40.5t-16.5 -41t-39.5 -18z" />
    <glyph glyph-name="cdotaccent" unicode="&#x10b;" horiz-adv-x="442" 
d="M255 -10q-79 0 -129.5 28t-74 76t-23.5 108v68q0 60 23.5 108t73.5 76t128 28q49 0 87 -11.5t60 -30.5t22 -41q0 -14 -7.5 -32t-21 -31t-31.5 -13q-12 0 -23.5 6t-28.5 12t-44 6q-45 0 -64 -20t-19 -57v-68q0 -37 19 -57t65 -20q27 0 43 7t27.5 13.5t24.5 6.5
q21 0 36 -12t22.5 -29.5t7.5 -32.5q0 -22 -23 -42.5t-62 -33t-88 -12.5zM251 570q-23 0 -40 18t-17 41t17 40.5t40 17.5t39.5 -17.5t16.5 -40.5t-16.5 -41t-39.5 -18z" />
    <glyph glyph-name="Ccaron" unicode="&#x10c;" horiz-adv-x="562" 
d="M286 -6q-65 0 -120 23t-87.5 75t-32.5 138v265q0 86 32.5 138t87.5 75t120 23q72 0 128.5 -23.5t89.5 -67.5t33 -108q0 -45 -19 -59.5t-59 -14.5q-31 0 -53.5 10t-24.5 37q0 10 -2.5 25t-10.5 30t-26 25t-50 10q-43 0 -66.5 -24.5t-23.5 -75.5v-265q0 -51 24 -75.5
t67 -24.5q30 0 47.5 10t25.5 25.5t11 32.5t4 32q2 28 24.5 37.5t52.5 9.5q41 0 60 -14.5t19 -59.5q0 -66 -33 -113t-89.5 -71.5t-128.5 -24.5zM281 819q-7 0 -17 5l-104 56q-13 8 -19 19.5t-6 24.5q0 17 9 31.5t22 14.5q5 0 11 -3l104 -56l104 56q6 3 11 3q14 0 22.5 -14.5
t8.5 -31.5q0 -13 -5.5 -24.5t-19.5 -19.5l-104 -56q-10 -5 -17 -5z" />
    <glyph glyph-name="ccaron" unicode="&#x10d;" horiz-adv-x="442" 
d="M255 -10q-79 0 -129.5 28t-74 76t-23.5 108v68q0 60 23.5 108t73.5 76t128 28q49 0 87 -11.5t60 -30.5t22 -41q0 -14 -7.5 -32t-21 -31t-31.5 -13q-12 0 -23.5 6t-28.5 12t-44 6q-45 0 -64 -20t-19 -57v-68q0 -37 19 -57t65 -20q27 0 43 7t27.5 13.5t24.5 6.5
q21 0 36 -12t22.5 -29.5t7.5 -32.5q0 -22 -23 -42.5t-62 -33t-88 -12.5zM251 580q-7 0 -17 5l-104 56q-13 8 -19 19.5t-6 24.5q0 17 9 31.5t22 14.5q5 0 11 -3l104 -56l104 56q6 3 11 3q14 0 22.5 -14.5t8.5 -31.5q0 -13 -5.5 -24.5t-19.5 -19.5l-104 -56q-10 -5 -17 -5z
" />
    <glyph glyph-name="Dcaron" unicode="&#x10e;" horiz-adv-x="590" 
d="M122 0q-31 0 -49.5 14t-18.5 33v637q0 19 18.5 33t49.5 14h177q69 0 125 -23t88.5 -75t32.5 -138v-259q0 -86 -32.5 -138t-88.5 -75t-125 -23h-177zM210 136h89q42 0 66 24.5t24 75.5v259q0 51 -24 75.5t-66 24.5h-89v-459zM295 819q-7 0 -17 5l-104 56q-13 8 -19 19.5
t-6 24.5q0 17 9 31.5t22 14.5q5 0 11 -3l104 -56l104 56q6 3 11 3q14 0 22.5 -14.5t8.5 -31.5q0 -13 -5.5 -24.5t-19.5 -19.5l-104 -56q-10 -5 -17 -5z" />
    <glyph glyph-name="dcaron" unicode="&#x10f;" horiz-adv-x="533" 
d="M202 -10q-46 0 -86 30t-64 78.5t-24 103.5v70q0 58 24 105.5t64 76t89 28.5q46 0 78.5 -23.5t48.5 -52.5v295q0 21 23 34t56 13t54.5 -13t21.5 -34v-653q0 -18 -21.5 -33t-54.5 -15q-28 0 -48.5 15t-20.5 33v22q-15 -31 -53.5 -55.5t-86.5 -24.5zM255 125q22 0 39 12.5
t27.5 28t10.5 23.5v83q0 24 -11.5 40.5t-29 25.5t-35.5 9q-20 0 -37 -11t-26.5 -28t-9.5 -36v-70q0 -19 9.5 -37t26 -29t36.5 -11zM595 487q-16 0 -33 10t-17 29q0 8 4 16l25 54q-18 11 -29 28.5t-11 39.5q0 32 22.5 54.5t53.5 22.5q32 0 54.5 -22.5t22.5 -53.5
q0 -4 -1.5 -11t-7.5 -22t-18.5 -45.5t-34.5 -81.5q-4 -10 -13 -14t-17 -4z" />
    <glyph glyph-name="Dcroat" unicode="&#x110;" horiz-adv-x="596" 
d="M128 0q-31 0 -49.5 14t-18.5 33v280h-32q-19 0 -28.5 17t-9.5 38q0 20 9.5 37.5t28.5 17.5h32v247q0 19 18.5 33t49.5 14h177q69 0 125 -23t88.5 -75t32.5 -138v-259q0 -86 -32.5 -138t-88.5 -75t-125 -23h-177zM216 136h89q42 0 66 24.5t24 75.5v259q0 51 -24 75.5
t-66 24.5h-89v-158h62q19 0 28.5 -17.5t9.5 -37.5q0 -22 -9.5 -38.5t-28.5 -16.5h-62v-191z" />
    <glyph glyph-name="dcroat" unicode="&#x111;" horiz-adv-x="533" 
d="M202 -10q-46 0 -86 30t-64 78.5t-24 103.5v70q0 58 24 105.5t64 76t89 28.5q46 0 78.5 -23.5t48.5 -52.5v139h-61q-19 0 -28.5 17t-9.5 38q0 20 9.5 37.5t28.5 17.5h61v46q0 21 23 34t56 13t54.5 -13t21.5 -34v-46h22q19 0 28.5 -17.5t9.5 -37.5q0 -22 -9.5 -38.5
t-28.5 -16.5h-22v-497q0 -18 -21.5 -33t-54.5 -15q-28 0 -48.5 15t-20.5 33v22q-15 -31 -53.5 -55.5t-86.5 -24.5zM255 125q22 0 39 12.5t27.5 28t10.5 23.5v83q0 24 -11.5 40.5t-29 25.5t-35.5 9q-20 0 -37 -11t-26.5 -28t-9.5 -36v-70q0 -19 9.5 -37t26 -29t36.5 -11z" />
    <glyph glyph-name="Emacron" unicode="&#x112;" horiz-adv-x="539" 
d="M122 0q-25 0 -46.5 12t-21.5 36v635q0 24 21.5 36t46.5 12h356q25 0 36 -21.5t11 -45.5q0 -28 -12 -48.5t-35 -20.5h-268v-169h150q23 0 35 -18.5t12 -42.5q0 -20 -11 -39.5t-36 -19.5h-150v-170h268q23 0 35 -20.5t12 -48.5q0 -24 -11 -45.5t-36 -21.5h-356zM181 839
q-21 0 -34 13.5t-13 35.5q0 21 13 35.5t34 14.5h200q18 0 33 -14.5t15 -35.5q0 -22 -15 -35.5t-33 -13.5h-200z" />
    <glyph glyph-name="emacron" unicode="&#x113;" horiz-adv-x="496" 
d="M280 -10q-74 0 -131 26.5t-89.5 74.5t-32.5 111v73q0 56 31 103t83 75.5t116 28.5q58 0 106.5 -24t78.5 -66.5t30 -99.5q0 -45 -14.5 -64.5t-37 -24t-45.5 -4.5h-193v-6q0 -37 28 -59.5t74 -22.5q31 0 53 9.5t39 18.5t33 9q18 0 31 -12t19.5 -28t6.5 -28q0 -19 -23 -40
t-64.5 -35.5t-98.5 -14.5zM182 286h124q11 0 16 5t5 19q0 20 -10.5 33.5t-27 20t-35.5 6.5q-18 0 -34.5 -6.5t-27 -20t-10.5 -33.5v-24zM156 599q-21 0 -34 13.5t-13 35.5q0 21 13 35.5t34 14.5h200q18 0 33 -14.5t15 -35.5q0 -22 -15 -35.5t-33 -13.5h-200z" />
    <glyph glyph-name="Ebreve" unicode="&#x114;" horiz-adv-x="539" 
d="M122 0q-25 0 -46.5 12t-21.5 36v635q0 24 21.5 36t46.5 12h356q25 0 36 -21.5t11 -45.5q0 -28 -12 -48.5t-35 -20.5h-268v-169h150q23 0 35 -18.5t12 -42.5q0 -20 -11 -39.5t-36 -19.5h-150v-170h268q23 0 35 -20.5t12 -48.5q0 -24 -11 -45.5t-36 -21.5h-356zM282 824
q-46 0 -85 31t-51 76q-4 15 4.5 23.5t23.5 8.5h20q14 0 21 -7t12 -20q7 -21 23 -33.5t32 -12.5q17 0 32 12.5t22 33.5q5 13 12.5 20t20.5 7h20q15 0 23.5 -8.5t4.5 -24.5q-13 -44 -51.5 -75t-83.5 -31z" />
    <glyph glyph-name="ebreve" unicode="&#x115;" horiz-adv-x="496" 
d="M280 -10q-74 0 -131 26.5t-89.5 74.5t-32.5 111v73q0 56 31 103t83 75.5t116 28.5q58 0 106.5 -24t78.5 -66.5t30 -99.5q0 -45 -14.5 -64.5t-37 -24t-45.5 -4.5h-193v-6q0 -37 28 -59.5t74 -22.5q31 0 53 9.5t39 18.5t33 9q18 0 31 -12t19.5 -28t6.5 -28q0 -19 -23 -40
t-64.5 -35.5t-98.5 -14.5zM182 286h124q11 0 16 5t5 19q0 20 -10.5 33.5t-27 20t-35.5 6.5q-18 0 -34.5 -6.5t-27 -20t-10.5 -33.5v-24zM257 584q-46 0 -85 31t-51 76q-4 15 4.5 23.5t23.5 8.5h20q14 0 21 -7t12 -20q7 -21 23 -33.5t32 -12.5q17 0 32 12.5t22 33.5
q5 13 12.5 20t20.5 7h20q15 0 23.5 -8.5t4.5 -24.5q-13 -44 -51.5 -75t-83.5 -31z" />
    <glyph glyph-name="Edotaccent" unicode="&#x116;" horiz-adv-x="539" 
d="M122 0q-25 0 -46.5 12t-21.5 36v635q0 24 21.5 36t46.5 12h356q25 0 36 -21.5t11 -45.5q0 -28 -12 -48.5t-35 -20.5h-268v-169h150q23 0 35 -18.5t12 -42.5q0 -20 -11 -39.5t-36 -19.5h-150v-170h268q23 0 35 -20.5t12 -48.5q0 -24 -11 -45.5t-36 -21.5h-356zM282 809
q-23 0 -40 18t-17 41t17 40.5t40 17.5t39.5 -17.5t16.5 -40.5t-16.5 -41t-39.5 -18z" />
    <glyph glyph-name="edotaccent" unicode="&#x117;" horiz-adv-x="496" 
d="M280 -10q-74 0 -131 26.5t-89.5 74.5t-32.5 111v73q0 56 31 103t83 75.5t116 28.5q58 0 106.5 -24t78.5 -66.5t30 -99.5q0 -45 -14.5 -64.5t-37 -24t-45.5 -4.5h-193v-6q0 -37 28 -59.5t74 -22.5q31 0 53 9.5t39 18.5t33 9q18 0 31 -12t19.5 -28t6.5 -28q0 -19 -23 -40
t-64.5 -35.5t-98.5 -14.5zM182 286h124q11 0 16 5t5 19q0 20 -10.5 33.5t-27 20t-35.5 6.5q-18 0 -34.5 -6.5t-27 -20t-10.5 -33.5v-24zM257 569q-23 0 -40 18t-17 41t17 40.5t40 17.5t39.5 -17.5t16.5 -40.5t-16.5 -41t-39.5 -18z" />
    <glyph glyph-name="Eogonek" unicode="&#x118;" horiz-adv-x="539" 
d="M122 0q-25 0 -46.5 12t-21.5 36v635q0 24 21.5 36t46.5 12h356q25 0 36 -21.5t11 -45.5q0 -28 -12 -48.5t-35 -20.5h-268v-169h150q23 0 35 -18.5t12 -42.5q0 -20 -11 -39.5t-36 -19.5h-150v-170h268q23 0 35 -20.5t12 -48.5q0 -24 -11 -45.5t-36 -21.5h-356zM476 -218
q-44 0 -71.5 13t-40.5 35.5t-13 48.5q0 40 26.5 82t72.5 67l53 -19q-34 -19 -56.5 -53t-22.5 -63q0 -21 13.5 -34.5t44.5 -13.5q14 0 19.5 -11.5t5.5 -22.5t-5.5 -20t-25.5 -9z" />
    <glyph glyph-name="eogonek" unicode="&#x119;" horiz-adv-x="496" 
d="M280 -10q-74 0 -131 26.5t-89.5 74.5t-32.5 111v73q0 56 31 103t83 75.5t116 28.5q58 0 106.5 -24t78.5 -66.5t30 -99.5q0 -45 -14.5 -64.5t-37 -24t-45.5 -4.5h-193v-6q0 -37 28 -59.5t74 -22.5q31 0 53 9.5t39 18.5t33 9q18 0 31 -12t19.5 -28t6.5 -28q0 -19 -23 -40
t-64.5 -35.5t-98.5 -14.5zM182 286h124q11 0 16 5t5 19q0 20 -10.5 33.5t-27 20t-35.5 6.5q-18 0 -34.5 -6.5t-27 -20t-10.5 -33.5v-24zM367 -211q-44 0 -71.5 13t-40.5 35.5t-13 48.5q0 40 26.5 82t72.5 67l53 -19q-34 -19 -56.5 -53t-22.5 -63q0 -21 13.5 -34.5
t44.5 -13.5q14 0 19.5 -11.5t5.5 -22.5t-5.5 -20t-25.5 -9z" />
    <glyph glyph-name="Ecaron" unicode="&#x11a;" horiz-adv-x="539" 
d="M122 0q-25 0 -46.5 12t-21.5 36v635q0 24 21.5 36t46.5 12h356q25 0 36 -21.5t11 -45.5q0 -28 -12 -48.5t-35 -20.5h-268v-169h150q23 0 35 -18.5t12 -42.5q0 -20 -11 -39.5t-36 -19.5h-150v-170h268q23 0 35 -20.5t12 -48.5q0 -24 -11 -45.5t-36 -21.5h-356zM282 819
q-7 0 -17 5l-104 56q-13 8 -19 19.5t-6 24.5q0 17 9 31.5t22 14.5q5 0 11 -3l104 -56l104 56q6 3 11 3q14 0 22.5 -14.5t8.5 -31.5q0 -13 -5.5 -24.5t-19.5 -19.5l-104 -56q-10 -5 -17 -5z" />
    <glyph glyph-name="ecaron" unicode="&#x11b;" horiz-adv-x="496" 
d="M280 -10q-74 0 -131 26.5t-89.5 74.5t-32.5 111v73q0 56 31 103t83 75.5t116 28.5q58 0 106.5 -24t78.5 -66.5t30 -99.5q0 -45 -14.5 -64.5t-37 -24t-45.5 -4.5h-193v-6q0 -37 28 -59.5t74 -22.5q31 0 53 9.5t39 18.5t33 9q18 0 31 -12t19.5 -28t6.5 -28q0 -19 -23 -40
t-64.5 -35.5t-98.5 -14.5zM182 286h124q11 0 16 5t5 19q0 20 -10.5 33.5t-27 20t-35.5 6.5q-18 0 -34.5 -6.5t-27 -20t-10.5 -33.5v-24zM257 579q-7 0 -17 5l-104 56q-13 8 -19 19.5t-6 24.5q0 17 9 31.5t22 14.5q5 0 11 -3l104 -56l104 56q6 3 11 3q14 0 22.5 -14.5
t8.5 -31.5q0 -13 -5.5 -24.5t-19.5 -19.5l-104 -56q-10 -5 -17 -5z" />
    <glyph glyph-name="Gcircumflex" unicode="&#x11c;" horiz-adv-x="573" 
d="M291 -6q-69 0 -124.5 23t-88 75t-32.5 138v265q0 86 32.5 138t87.5 75t120 23q72 0 128.5 -23.5t89.5 -67.5t33 -108q0 -45 -19 -59.5t-59 -14.5q-31 0 -54 10t-24 37q0 18 -4.5 39t-23 36t-61.5 15t-66.5 -24.5t-23.5 -75.5v-265q0 -51 23.5 -75.5t65.5 -24.5t66 24.5
t24 75.5v34h-59q-22 0 -34.5 18.5t-12.5 41.5q0 22 12.5 41t34.5 19h168q23 0 35 -14.5t12 -34.5v-105q0 -86 -32.5 -138t-88.5 -75t-125 -23zM172 807q-13 0 -22 14.5t-9 31.5q0 13 6 25t19 19l104 56q10 5 17 5t17 -5l104 -56q14 -7 19.5 -19t5.5 -25q0 -17 -8.5 -31.5
t-22.5 -14.5q-2 0 -5 1l-6 2l-104 56l-104 -56l-6 -2t-5 -1z" />
    <glyph glyph-name="gcircumflex" unicode="&#x11d;" horiz-adv-x="478" 
d="M240 -217q-59 0 -111.5 17t-84.5 49.5t-32 78.5q0 36 19 62t48 42q-16 10 -26 25t-10 37q0 28 14.5 46.5t36.5 34.5q-31 23 -48 55.5t-17 71.5v15q0 49 25.5 86t72 58t107.5 21q32 0 61 -6.5t52 -17.5q18 44 31 57t26 13q28 0 43.5 -16t15.5 -30q0 -8 -4 -15.5t-12 -14.5
q-9 -8 -20.5 -16.5t-22.5 -19.5q19 -20 28.5 -45t9.5 -54v-15q0 -48 -26.5 -85.5t-73.5 -59.5t-108 -22q-33 0 -60 6q-2 -4 -3 -7t-1 -6q0 -14 21.5 -20t55 -10t71.5 -11t71.5 -22t55 -43.5t21.5 -75.5q0 -59 -33.5 -95t-85 -52t-107.5 -16zM237 -119q30 0 54.5 16.5
t24.5 44.5q0 17 -9.5 28t-26 17.5t-38 10t-44.5 6.5q-20 -10 -30 -26t-10 -34q0 -31 24.5 -47t54.5 -16zM236 225q26 0 41 21.5t15 55.5v15q0 31 -14.5 53t-42.5 22q-27 0 -41.5 -22t-14.5 -53v-14q0 -33 14.5 -55.5t42.5 -22.5zM100 567q-13 0 -22 14.5t-9 31.5q0 13 6 25
t19 19l104 56q10 5 17 5t17 -5l104 -56q14 -7 19.5 -19t5.5 -25q0 -17 -8.5 -31.5t-22.5 -14.5q-2 0 -5 1l-6 2l-104 56l-104 -56l-6 -2t-5 -1z" />
    <glyph glyph-name="Gbreve" unicode="&#x11e;" horiz-adv-x="573" 
d="M291 -6q-69 0 -124.5 23t-88 75t-32.5 138v265q0 86 32.5 138t87.5 75t120 23q72 0 128.5 -23.5t89.5 -67.5t33 -108q0 -45 -19 -59.5t-59 -14.5q-31 0 -54 10t-24 37q0 18 -4.5 39t-23 36t-61.5 15t-66.5 -24.5t-23.5 -75.5v-265q0 -51 23.5 -75.5t65.5 -24.5t66 24.5
t24 75.5v34h-59q-22 0 -34.5 18.5t-12.5 41.5q0 22 12.5 41t34.5 19h168q23 0 35 -14.5t12 -34.5v-105q0 -86 -32.5 -138t-88.5 -75t-125 -23zM287 824q-46 0 -85 31t-51 76q-4 15 4.5 23.5t23.5 8.5h20q14 0 21 -7t12 -20q7 -21 23 -33.5t32 -12.5q17 0 32 12.5t22 33.5
q5 13 12.5 20t20.5 7h20q15 0 23.5 -8.5t4.5 -24.5q-13 -44 -51.5 -75t-83.5 -31z" />
    <glyph glyph-name="gbreve" unicode="&#x11f;" horiz-adv-x="478" 
d="M240 -217q-59 0 -111.5 17t-84.5 49.5t-32 78.5q0 36 19 62t48 42q-16 10 -26 25t-10 37q0 28 14.5 46.5t36.5 34.5q-31 23 -48 55.5t-17 71.5v15q0 49 25.5 86t72 58t107.5 21q32 0 61 -6.5t52 -17.5q18 44 31 57t26 13q28 0 43.5 -16t15.5 -30q0 -8 -4 -15.5t-12 -14.5
q-9 -8 -20.5 -16.5t-22.5 -19.5q19 -20 28.5 -45t9.5 -54v-15q0 -48 -26.5 -85.5t-73.5 -59.5t-108 -22q-33 0 -60 6q-2 -4 -3 -7t-1 -6q0 -14 21.5 -20t55 -10t71.5 -11t71.5 -22t55 -43.5t21.5 -75.5q0 -59 -33.5 -95t-85 -52t-107.5 -16zM237 -119q30 0 54.5 16.5
t24.5 44.5q0 17 -9.5 28t-26 17.5t-38 10t-44.5 6.5q-20 -10 -30 -26t-10 -34q0 -31 24.5 -47t54.5 -16zM236 225q26 0 41 21.5t15 55.5v15q0 31 -14.5 53t-42.5 22q-27 0 -41.5 -22t-14.5 -53v-14q0 -33 14.5 -55.5t42.5 -22.5zM215 584q-46 0 -85 31t-51 76
q-4 15 4.5 23.5t23.5 8.5h20q14 0 21 -7t12 -20q7 -21 23 -33.5t32 -12.5q17 0 32 12.5t22 33.5q5 13 12.5 20t20.5 7h20q15 0 23.5 -8.5t4.5 -24.5q-13 -44 -51.5 -75t-83.5 -31z" />
    <glyph glyph-name="Gdotaccent" unicode="&#x120;" horiz-adv-x="573" 
d="M291 -6q-69 0 -124.5 23t-88 75t-32.5 138v265q0 86 32.5 138t87.5 75t120 23q72 0 128.5 -23.5t89.5 -67.5t33 -108q0 -45 -19 -59.5t-59 -14.5q-31 0 -54 10t-24 37q0 18 -4.5 39t-23 36t-61.5 15t-66.5 -24.5t-23.5 -75.5v-265q0 -51 23.5 -75.5t65.5 -24.5t66 24.5
t24 75.5v34h-59q-22 0 -34.5 18.5t-12.5 41.5q0 22 12.5 41t34.5 19h168q23 0 35 -14.5t12 -34.5v-105q0 -86 -32.5 -138t-88.5 -75t-125 -23zM287 809q-23 0 -40 18t-17 41t17 40.5t40 17.5t39.5 -17.5t16.5 -40.5t-16.5 -41t-39.5 -18z" />
    <glyph glyph-name="gdotaccent" unicode="&#x121;" horiz-adv-x="478" 
d="M240 -217q-59 0 -111.5 17t-84.5 49.5t-32 78.5q0 36 19 62t48 42q-16 10 -26 25t-10 37q0 28 14.5 46.5t36.5 34.5q-31 23 -48 55.5t-17 71.5v15q0 49 25.5 86t72 58t107.5 21q32 0 61 -6.5t52 -17.5q18 44 31 57t26 13q28 0 43.5 -16t15.5 -30q0 -8 -4 -15.5t-12 -14.5
q-9 -8 -20.5 -16.5t-22.5 -19.5q19 -20 28.5 -45t9.5 -54v-15q0 -48 -26.5 -85.5t-73.5 -59.5t-108 -22q-33 0 -60 6q-2 -4 -3 -7t-1 -6q0 -14 21.5 -20t55 -10t71.5 -11t71.5 -22t55 -43.5t21.5 -75.5q0 -59 -33.5 -95t-85 -52t-107.5 -16zM237 -119q30 0 54.5 16.5
t24.5 44.5q0 17 -9.5 28t-26 17.5t-38 10t-44.5 6.5q-20 -10 -30 -26t-10 -34q0 -31 24.5 -47t54.5 -16zM236 225q26 0 41 21.5t15 55.5v15q0 31 -14.5 53t-42.5 22q-27 0 -41.5 -22t-14.5 -53v-14q0 -33 14.5 -55.5t42.5 -22.5zM215 569q-23 0 -40 18t-17 41t17 40.5
t40 17.5t39.5 -17.5t16.5 -40.5t-16.5 -41t-39.5 -18z" />
    <glyph glyph-name="uni0122" unicode="&#x122;" horiz-adv-x="573" 
d="M291 -6q-69 0 -124.5 23t-88 75t-32.5 138v265q0 86 32.5 138t87.5 75t120 23q72 0 128.5 -23.5t89.5 -67.5t33 -108q0 -45 -19 -59.5t-59 -14.5q-31 0 -54 10t-24 37q0 18 -4.5 39t-23 36t-61.5 15t-66.5 -24.5t-23.5 -75.5v-265q0 -51 23.5 -75.5t65.5 -24.5t66 24.5
t24 75.5v34h-59q-22 0 -34.5 18.5t-12.5 41.5q0 22 12.5 41t34.5 19h168q23 0 35 -14.5t12 -34.5v-105q0 -86 -32.5 -138t-88.5 -75t-125 -23zM222 -209q-19 0 -32.5 19.5t-13.5 38.5q0 25 20 35l140 65q8 3 14 3q20 0 33.5 -19t13.5 -39q0 -24 -20 -34l-140 -65
q-4 -1 -7.5 -2.5t-7.5 -1.5z" />
    <glyph glyph-name="uni0123" unicode="&#x123;" horiz-adv-x="478" 
d="M240 -217q-59 0 -111.5 17t-84.5 49.5t-32 78.5q0 36 19 62t48 42q-16 10 -26 25t-10 37q0 28 14.5 46.5t36.5 34.5q-31 23 -48 55.5t-17 71.5v15q0 49 25.5 86t72 58t107.5 21q32 0 61 -6.5t52 -17.5q18 44 31 57t26 13q28 0 43.5 -16t15.5 -30q0 -8 -4 -15.5t-12 -14.5
q-9 -8 -20.5 -16.5t-22.5 -19.5q19 -20 28.5 -45t9.5 -54v-15q0 -48 -26.5 -85.5t-73.5 -59.5t-108 -22q-33 0 -60 6q-2 -4 -3 -7t-1 -6q0 -14 21.5 -20t55 -10t71.5 -11t71.5 -22t55 -43.5t21.5 -75.5q0 -59 -33.5 -95t-85 -52t-107.5 -16zM237 -119q30 0 54.5 16.5
t24.5 44.5q0 17 -9.5 28t-26 17.5t-38 10t-44.5 6.5q-20 -10 -30 -26t-10 -34q0 -31 24.5 -47t54.5 -16zM236 225q26 0 41 21.5t15 55.5v15q0 31 -14.5 53t-42.5 22q-27 0 -41.5 -22t-14.5 -53v-14q0 -33 14.5 -55.5t42.5 -22.5zM193 559q-19 0 -32.5 19.5t-13.5 38.5
q0 25 20 35l140 65q8 3 14 3q20 0 33.5 -19t13.5 -39q0 -24 -20 -34l-140 -65q-4 -1 -7.5 -2.5t-7.5 -1.5z" />
    <glyph glyph-name="Hcircumflex" unicode="&#x124;" horiz-adv-x="619" 
d="M132 0q-29 0 -53.5 12t-24.5 36v636q0 25 24.5 36t53.5 11t53.5 -11t24.5 -36v-245h199v245q0 25 24.5 36t53.5 11t53.5 -11t24.5 -36v-636q0 -24 -24.5 -36t-53.5 -12t-53.5 12t-24.5 36v271h-199v-271q0 -24 -24.5 -36t-53.5 -12zM195 807q-13 0 -22 14.5t-9 31.5
q0 13 6 25t19 19l104 56q10 5 17 5t17 -5l104 -56q14 -7 19.5 -19t5.5 -25q0 -17 -8.5 -31.5t-22.5 -14.5q-2 0 -5 1l-6 2l-104 56l-104 -56l-6 -2t-5 -1z" />
    <glyph glyph-name="hcircumflex" unicode="&#x125;" horiz-adv-x="535" 
d="M123 0q-34 0 -55.5 15t-21.5 33v653q0 21 21.5 34t55.5 13q32 0 55 -13t23 -34v-295q14 29 46 52.5t78 23.5t84.5 -28.5t62 -76t23.5 -105.5v-224q0 -24 -24.5 -36t-53.5 -12q-27 0 -52 12t-25 36v224q0 19 -10 36t-26 28t-36 11q-16 0 -31.5 -9t-25.5 -25.5t-10 -40.5
v-224q0 -18 -23 -33t-55 -15zM-5 823q-13 0 -22 14.5t-9 31.5q0 13 6 25t19 19l104 56q10 5 17 5t17 -5l104 -56q14 -7 19.5 -19t5.5 -25q0 -17 -8.5 -31.5t-22.5 -14.5q-2 0 -5 1l-6 2l-104 56l-104 -56l-6 -2t-5 -1z" />
    <glyph glyph-name="Hbar" unicode="&#x126;" horiz-adv-x="623" 
d="M134 0q-29 0 -53.5 12t-24.5 36v484h-4q-19 0 -28 15t-9 34q0 18 9 33.5t28 15.5h4v54q0 25 24.5 36t53.5 11t53.5 -11t24.5 -36v-54h199v54q0 25 24.5 36t53.5 11t53.5 -11t24.5 -36v-54h4q19 0 27.5 -15.5t8.5 -33.5q0 -19 -8.5 -34t-27.5 -15h-4v-484q0 -24 -24.5 -36
t-53.5 -12t-53.5 12t-24.5 36v271h-199v-271q0 -24 -24.5 -36t-53.5 -12zM212 439h199v93h-199v-93z" />
    <glyph glyph-name="hbar" unicode="&#x127;" horiz-adv-x="535" 
d="M123 0q-34 0 -55.5 15t-21.5 33v497h-23q-21 0 -34 13.5t-13 35.5q0 21 13 35.5t34 14.5h23v57q0 21 21.5 34t55.5 13q32 0 55 -13t23 -34v-57h22q18 0 33 -14.5t15 -35.5q0 -22 -15 -35.5t-33 -13.5h-22v-139q14 29 46 52.5t78 23.5t84.5 -28.5t62 -76t23.5 -105.5v-224
q0 -24 -24.5 -36t-53.5 -12q-27 0 -52 12t-25 36v224q0 19 -10 36t-26 28t-36 11q-16 0 -31.5 -9t-25.5 -25.5t-10 -40.5v-224q0 -18 -23 -33t-55 -15z" />
    <glyph glyph-name="Itilde" unicode="&#x128;" horiz-adv-x="264" 
d="M132 0q-29 0 -53.5 12t-24.5 36v636q0 25 24.5 36t53.5 11t53.5 -11t24.5 -36v-636q0 -24 -24.5 -36t-53.5 -12zM224 817q-35 0 -59 7t-43.5 13.5t-43.5 6.5q-21 0 -36 -5t-26.5 -10.5t-23.5 -5.5q-15 0 -23.5 10t-11.5 22t-3 17q0 27 10.5 41.5t25 21.5t28.5 8.5t21 1.5
q31 0 53 -6.5t44 -13.5t49 -7q21 0 36 5.5t27 10.5t23 5q16 0 24 -10t11 -22t3 -17q0 -27 -10.5 -41.5t-25 -21.5t-28.5 -8.5t-21 -1.5z" />
    <glyph glyph-name="itilde" unicode="&#x129;" horiz-adv-x="244" 
d="M122 0q-34 0 -55.5 15t-21.5 33v381q0 21 21.5 34t55.5 13q32 0 55 -13t23 -34v-381q0 -18 -23 -33t-55 -15zM214 576q-35 0 -59 7t-43.5 13.5t-43.5 6.5q-21 0 -36 -5t-26.5 -10.5t-23.5 -5.5q-15 0 -23.5 10t-11.5 22t-3 17q0 27 10.5 41.5t25 21.5t28.5 8.5t21 1.5
q31 0 53 -6.5t44 -13.5t49 -7q21 0 36 5.5t27 10.5t23 5q16 0 24 -10t11 -22t3 -17q0 -27 -10.5 -41.5t-25 -21.5t-28.5 -8.5t-21 -1.5z" />
    <glyph glyph-name="Imacron" unicode="&#x12a;" horiz-adv-x="264" 
d="M132 0q-29 0 -53.5 12t-24.5 36v636q0 25 24.5 36t53.5 11t53.5 -11t24.5 -36v-636q0 -24 -24.5 -36t-53.5 -12zM31 839q-21 0 -34 13.5t-13 35.5q0 21 13 35.5t34 14.5h200q18 0 33 -14.5t15 -35.5q0 -22 -15 -35.5t-33 -13.5h-200z" />
    <glyph glyph-name="imacron" unicode="&#x12b;" horiz-adv-x="244" 
d="M122 0q-34 0 -55.5 15t-21.5 33v381q0 21 21.5 34t55.5 13q32 0 55 -13t23 -34v-381q0 -18 -23 -33t-55 -15zM23 600q-21 0 -34 13.5t-13 35.5q0 21 13 35.5t34 14.5h200q18 0 33 -14.5t15 -35.5q0 -22 -15 -35.5t-33 -13.5h-200z" />
    <glyph glyph-name="Ibreve" unicode="&#x12c;" horiz-adv-x="264" 
d="M132 0q-29 0 -53.5 12t-24.5 36v636q0 25 24.5 36t53.5 11t53.5 -11t24.5 -36v-636q0 -24 -24.5 -36t-53.5 -12zM132 824q-46 0 -85 31t-51 76q-4 15 4.5 23.5t23.5 8.5h20q14 0 21 -7t12 -20q7 -21 23 -33.5t32 -12.5q17 0 32 12.5t22 33.5q5 13 12.5 20t20.5 7h20
q15 0 23.5 -8.5t4.5 -24.5q-13 -44 -51.5 -75t-83.5 -31z" />
    <glyph glyph-name="ibreve" unicode="&#x12d;" horiz-adv-x="244" 
d="M122 0q-34 0 -55.5 15t-21.5 33v381q0 21 21.5 34t55.5 13q32 0 55 -13t23 -34v-381q0 -18 -23 -33t-55 -15zM122 583q-46 0 -85 31t-51 76q-4 15 4.5 23.5t23.5 8.5h20q14 0 21 -7t12 -20q7 -21 23 -33.5t32 -12.5q17 0 32 12.5t22 33.5q5 13 12.5 20t20.5 7h20
q15 0 23.5 -8.5t4.5 -24.5q-13 -44 -51.5 -75t-83.5 -31z" />
    <glyph glyph-name="Iogonek" unicode="&#x12e;" horiz-adv-x="264" 
d="M132 0q-29 0 -53.5 12t-24.5 36v636q0 25 24.5 36t53.5 11t53.5 -11t24.5 -36v-636q0 -24 -24.5 -36t-53.5 -12zM151 -218q-44 0 -71.5 13t-40.5 35.5t-13 48.5q0 40 26.5 82t72.5 67l53 -19q-34 -19 -56.5 -53t-22.5 -63q0 -21 13.5 -34.5t44.5 -13.5q14 0 19.5 -11.5
t5.5 -22.5t-5.5 -20t-25.5 -9z" />
    <glyph glyph-name="iogonek" unicode="&#x12f;" horiz-adv-x="244" 
d="M122 0q-34 0 -55.5 15t-21.5 33v381q0 21 21.5 34t55.5 13q32 0 55 -13t23 -34v-381q0 -18 -23 -33t-55 -15zM122 568q-23 0 -40 18t-17 41t17 40.5t40 17.5t39.5 -17.5t16.5 -40.5t-16.5 -41t-39.5 -18zM132 -218q-44 0 -71.5 13t-40.5 35.5t-13 48.5q0 40 26.5 82
t72.5 67l53 -19q-34 -19 -56.5 -53t-22.5 -63q0 -21 13.5 -34.5t44.5 -13.5q14 0 19.5 -11.5t5.5 -22.5t-5.5 -20t-25.5 -9z" />
    <glyph glyph-name="Idotaccent" unicode="&#x130;" horiz-adv-x="264" 
d="M132 0q-29 0 -53.5 12t-24.5 36v636q0 25 24.5 36t53.5 11t53.5 -11t24.5 -36v-636q0 -24 -24.5 -36t-53.5 -12zM132 809q-23 0 -40 18t-17 41t17 40.5t40 17.5t39.5 -17.5t16.5 -40.5t-16.5 -41t-39.5 -18z" />
    <glyph glyph-name="dotlessi" unicode="&#x131;" horiz-adv-x="244" 
d="M122 0q-34 0 -55.5 15t-21.5 33v381q0 21 21.5 34t55.5 13q32 0 55 -13t23 -34v-381q0 -18 -23 -33t-55 -15z" />
    <glyph glyph-name="IJ" unicode="&#x132;" horiz-adv-x="812" 
d="M132 0q-29 0 -53.5 12t-24.5 36v636q0 25 24.5 36t53.5 11t53.5 -11t24.5 -36v-636q0 -24 -24.5 -36t-53.5 -12zM521 -6q-71 0 -128 24.5t-90 71.5t-33 113q0 45 19.5 59.5t59.5 14.5q30 0 52.5 -9.5t24.5 -37.5q2 -19 7 -42.5t23 -40.5t58 -17q44 0 67.5 24.5t23.5 75.5
v365h-87q-22 0 -34.5 20.5t-12.5 48.5q0 24 11 45.5t36 21.5h175q26 0 47 -12t21 -36v-453q0 -86 -32.5 -138t-87 -75t-120.5 -23z" />
    <glyph glyph-name="ij" unicode="&#x133;" horiz-adv-x="462" 
d="M122 568q-34 0 -58 22t-24 50q0 29 24 50t58 21t57.5 -21t23.5 -50q0 -28 -23.5 -50t-57.5 -22zM122 0q-34 0 -55.5 15t-21.5 33v381q0 21 21.5 34t55.5 13q32 0 55 -13t23 -34v-381q0 -18 -23 -33t-55 -15zM258 -217q-49 0 -65 20t-16 43q0 31 17 49t41 18q12 0 18 7.5
t7.5 21t1.5 30.5v457q0 21 21.5 34t54.5 13t56 -13t23 -34v-457q0 -55 -18.5 -98t-54 -67t-86.5 -24zM339 568q-34 0 -58 22t-24 50q0 29 24 50t58 21t57.5 -21t23.5 -50q0 -28 -23.5 -50t-57.5 -22z" />
    <glyph glyph-name="Jcircumflex" unicode="&#x134;" horiz-adv-x="548" 
d="M257 -6q-71 0 -128 24.5t-90 71.5t-33 113q0 45 19.5 59.5t59.5 14.5q30 0 52.5 -9.5t24.5 -37.5q2 -19 7 -42.5t23 -40.5t58 -17q44 0 67.5 24.5t23.5 75.5v365h-87q-22 0 -34.5 20.5t-12.5 48.5q0 24 11 45.5t36 21.5h175q26 0 47 -12t21 -36v-453q0 -86 -32.5 -138
t-87 -75t-120.5 -23zM159 807q-13 0 -22 14.5t-9 31.5q0 13 6 25t19 19l104 56q10 5 17 5t17 -5l104 -56q14 -7 19.5 -19t5.5 -25q0 -17 -8.5 -31.5t-22.5 -14.5q-2 0 -5 1l-6 2l-104 56l-104 -56l-6 -2t-5 -1z" />
    <glyph glyph-name="jcircumflex" unicode="&#x135;" horiz-adv-x="245" 
d="M41 -217q-49 0 -65 20t-16 43q0 31 17 49t41 18q12 0 18 7.5t7.5 21t1.5 30.5v457q0 21 21.5 34t54.5 13t56 -13t23 -34v-457q0 -55 -18.5 -98t-54 -67t-86.5 -24zM-2 568q-13 0 -22 14.5t-9 31.5q0 13 6 25t19 19l104 56q10 5 17 5t17 -5l104 -56q14 -7 19.5 -19
t5.5 -25q0 -17 -8.5 -31.5t-22.5 -14.5q-2 0 -5 1l-6 2l-104 56l-104 -56l-6 -2t-5 -1z" />
    <glyph glyph-name="uni0136" unicode="&#x136;" horiz-adv-x="566" 
d="M132 0q-29 0 -53.5 12t-24.5 36v636q0 25 24.5 36t53.5 11t53.5 -11t24.5 -36v-240l187 265q15 22 41 22q20 0 41.5 -12t36 -30t14.5 -38q0 -6 -2 -14t-8 -16l-164 -206l207 -317q8 -13 8 -26q0 -19 -14 -37t-35.5 -29.5t-44.5 -11.5q-16 0 -30 6.5t-24 22.5l-171 260
l-42 -54v-181q0 -24 -24.5 -36t-53.5 -12zM218 -209q-19 0 -32.5 19.5t-13.5 38.5q0 25 20 35l140 65q8 3 14 3q20 0 33.5 -19t13.5 -39q0 -24 -20 -34l-140 -65q-4 -1 -7.5 -2.5t-7.5 -1.5z" />
    <glyph glyph-name="uni0137" unicode="&#x137;" horiz-adv-x="509" 
d="M122 0q-33 0 -54.5 15t-21.5 33v653q0 21 21.5 34t54.5 13t56 -13t23 -34v-392l166 161q12 12 30 12q17 0 34.5 -11.5t29 -28.5t11.5 -34q0 -7 -3 -14t-9 -13l-106 -98l137 -192q8 -13 8 -24q0 -18 -14.5 -36t-35 -29.5t-39.5 -11.5q-24 0 -37 19l-121 179l-51 -47v-93
q0 -18 -23 -33t-56 -15zM190 -209q-19 0 -32.5 19.5t-13.5 38.5q0 25 20 35l140 65q8 3 14 3q20 0 33.5 -19t13.5 -39q0 -24 -20 -34l-140 -65q-4 -1 -7.5 -2.5t-7.5 -1.5z" />
    <glyph glyph-name="kgreenlandic" unicode="&#x138;" horiz-adv-x="508" 
d="M121 0q-33 0 -54.5 15t-21.5 33v381q0 21 21.5 34t54.5 13t56 -13t23 -34v-120l166 161q12 12 30 12q17 0 34.5 -11.5t29 -28.5t11.5 -34q0 -7 -3 -14t-9 -13l-106 -98l137 -192q8 -13 8 -24q0 -18 -14.5 -36t-35 -29.5t-39.5 -11.5q-24 0 -37 19l-121 179l-51 -47v-93
q0 -18 -23 -33t-56 -15z" />
    <glyph glyph-name="Lacute" unicode="&#x139;" horiz-adv-x="492" 
d="M122 0q-25 0 -46.5 12t-21.5 36v636q0 25 24.5 36t53.5 11t53.5 -11t24.5 -36v-548h228q23 0 34 -21t11 -47q0 -25 -11 -46.5t-34 -21.5h-316zM191 798q-19 0 -32.5 19.5t-13.5 38.5q0 25 20 35l140 65q8 3 14 3q20 0 33.5 -19t13.5 -39q0 -24 -20 -34l-140 -65
q-4 -1 -7.5 -2.5t-7.5 -1.5z" />
    <glyph glyph-name="lacute" unicode="&#x13a;" horiz-adv-x="263" 
d="M131 0q-34 0 -55.5 15t-21.5 33v653q0 21 21.5 34t55.5 13q32 0 55 -13t23 -34v-653q0 -18 -23 -33t-55 -15zM97 788q-19 0 -32.5 19.5t-13.5 38.5q0 25 20 35l140 65q8 3 14 3q20 0 33.5 -19t13.5 -39q0 -24 -20 -34l-140 -65q-4 -1 -7.5 -2.5t-7.5 -1.5z" />
    <glyph glyph-name="uni013B" unicode="&#x13b;" horiz-adv-x="492" 
d="M122 0q-25 0 -46.5 12t-21.5 36v636q0 25 24.5 36t53.5 11t53.5 -11t24.5 -36v-548h228q23 0 34 -21t11 -47q0 -25 -11 -46.5t-34 -21.5h-316zM181 -209q-19 0 -32.5 19.5t-13.5 38.5q0 25 20 35l140 65q8 3 14 3q20 0 33.5 -19t13.5 -39q0 -24 -20 -34l-140 -65
q-4 -1 -7.5 -2.5t-7.5 -1.5z" />
    <glyph glyph-name="uni013C" unicode="&#x13c;" horiz-adv-x="263" 
d="M131 0q-34 0 -55.5 15t-21.5 33v653q0 21 21.5 34t55.5 13q32 0 55 -13t23 -34v-653q0 -18 -23 -33t-55 -15zM67 -209q-19 0 -32.5 19.5t-13.5 38.5q0 25 20 35l140 65q8 3 14 3q20 0 33.5 -19t13.5 -39q0 -24 -20 -34l-140 -65q-4 -1 -7.5 -2.5t-7.5 -1.5z" />
    <glyph glyph-name="Lcaron" unicode="&#x13d;" horiz-adv-x="494" 
d="M122 0q-25 0 -46.5 12t-21.5 36v636q0 25 24.5 36t53.5 11t53.5 -11t24.5 -36v-548h228q23 0 34 -21t11 -47q0 -25 -11 -46.5t-34 -21.5h-316zM374 487q-16 0 -33 10t-17 29q0 8 4 16l25 54q-18 11 -29 28.5t-11 39.5q0 32 22.5 54.5t53.5 22.5q32 0 54.5 -22.5
t22.5 -53.5q0 -4 -1.5 -11t-7.5 -22t-18.5 -45.5t-34.5 -81.5q-4 -10 -13 -14t-17 -4z" />
    <glyph glyph-name="lcaron" unicode="&#x13e;" horiz-adv-x="263" 
d="M131 0q-34 0 -55.5 15t-21.5 33v653q0 21 21.5 34t55.5 13q32 0 55 -13t23 -34v-653q0 -18 -23 -33t-55 -15zM319 487q-16 0 -33 10t-17 29q0 8 4 16l25 54q-18 11 -29 28.5t-11 39.5q0 32 22.5 54.5t53.5 22.5q32 0 54.5 -22.5t22.5 -53.5q0 -4 -1.5 -11t-7.5 -22
t-18.5 -45.5t-34.5 -81.5q-4 -10 -13 -14t-17 -4z" />
    <glyph glyph-name="Ldot" unicode="&#x13f;" horiz-adv-x="493" 
d="M122 0q-25 0 -46.5 12t-21.5 36v636q0 25 24.5 36t53.5 11t53.5 -11t24.5 -36v-548h228q23 0 34 -21t11 -47q0 -25 -11 -46.5t-34 -21.5h-316zM382 349q-34 0 -58 22t-24 50q0 29 24 50t58 21t57.5 -21t23.5 -50q0 -28 -23.5 -50t-57.5 -22z" />
    <glyph glyph-name="ldot" unicode="&#x140;" horiz-adv-x="392" 
d="M131 0q-34 0 -55.5 15t-21.5 33v653q0 21 21.5 34t55.5 13q32 0 55 -13t23 -34v-653q0 -18 -23 -33t-55 -15zM317 228q-34 0 -58 22t-24 50q0 29 24 50t58 21t57.5 -21t23.5 -50q0 -28 -23.5 -50t-57.5 -22z" />
    <glyph glyph-name="Lslash" unicode="&#x141;" horiz-adv-x="498" 
d="M128 0q-25 0 -46.5 12t-21.5 36v205l-5 -2q-6 -3 -13 -3q-21 0 -36.5 22.5t-15.5 46.5q0 11 4 20.5t14 13.5l52 24v309q0 25 24.5 36t53.5 11t53.5 -11t24.5 -36v-236l45 21q6 3 12 3q15 0 27 -11t19.5 -27t7.5 -31q0 -25 -19 -34l-92 -43v-190h228q23 0 34 -21t11 -47
q0 -25 -11 -46.5t-34 -21.5h-316z" />
    <glyph glyph-name="lslash" unicode="&#x142;" horiz-adv-x="336" 
d="M167 0q-34 0 -55.5 15t-21.5 33v208l-12 -5q-6 -3 -13 -3q-21 0 -36.5 22.5t-15.5 46.5q0 11 4 20.5t14 13.5l59 27v323q0 21 21.5 34t55.5 13q32 0 55 -13t23 -34v-250l13 6q6 3 12 3q15 0 27 -11t19.5 -27t7.5 -31q0 -25 -19 -34l-60 -28v-281q0 -18 -23 -33t-55 -15z
" />
    <glyph glyph-name="Nacute" unicode="&#x143;" horiz-adv-x="619" 
d="M132 0q-29 0 -53.5 12t-24.5 36v635q0 25 24.5 36.5t53.5 11.5q28 0 46.5 -4.5t34 -20.5t34.5 -53l162 -309v340q0 25 24.5 36t53.5 11t53.5 -11t24.5 -36v-636q0 -24 -24.5 -36t-53.5 -12q-27 0 -50 8t-37 34l-190 346v-340q0 -24 -24.5 -36t-53.5 -12zM280 798
q-19 0 -32.5 19.5t-13.5 38.5q0 25 20 35l140 65q8 3 14 3q20 0 33.5 -19t13.5 -39q0 -24 -20 -34l-140 -65q-4 -1 -7.5 -2.5t-7.5 -1.5z" />
    <glyph glyph-name="nacute" unicode="&#x144;" horiz-adv-x="534" 
d="M122 0q-34 0 -55.5 15t-21.5 33v381q0 21 21.5 34t55.5 13q28 0 48 -13t20 -34v-23q14 29 49 52.5t85 23.5q46 0 84.5 -28.5t62 -76t23.5 -105.5v-224q0 -24 -24.5 -36t-53.5 -12q-27 0 -52 12t-25 36v224q0 19 -9.5 36t-26 28t-36.5 11q-16 0 -31.5 -9t-25.5 -25.5
t-10 -40.5v-224q0 -18 -23 -33t-55 -15zM237 543q-19 0 -32.5 19.5t-13.5 38.5q0 25 20 35l140 65q8 3 14 3q20 0 33.5 -19t13.5 -39q0 -24 -20 -34l-140 -65q-4 -1 -7.5 -2.5t-7.5 -1.5z" />
    <glyph glyph-name="uni0145" unicode="&#x145;" horiz-adv-x="619" 
d="M132 0q-29 0 -53.5 12t-24.5 36v635q0 25 24.5 36.5t53.5 11.5q28 0 46.5 -4.5t34 -20.5t34.5 -53l162 -309v340q0 25 24.5 36t53.5 11t53.5 -11t24.5 -36v-636q0 -24 -24.5 -36t-53.5 -12q-27 0 -50 8t-37 34l-190 346v-340q0 -24 -24.5 -36t-53.5 -12zM245 -209
q-19 0 -32.5 19.5t-13.5 38.5q0 25 20 35l140 65q8 3 14 3q20 0 33.5 -19t13.5 -39q0 -24 -20 -34l-140 -65q-4 -1 -7.5 -2.5t-7.5 -1.5z" />
    <glyph glyph-name="uni0146" unicode="&#x146;" horiz-adv-x="534" 
d="M122 0q-34 0 -55.5 15t-21.5 33v381q0 21 21.5 34t55.5 13q28 0 48 -13t20 -34v-23q14 29 49 52.5t85 23.5q46 0 84.5 -28.5t62 -76t23.5 -105.5v-224q0 -24 -24.5 -36t-53.5 -12q-27 0 -52 12t-25 36v224q0 19 -9.5 36t-26 28t-36.5 11q-16 0 -31.5 -9t-25.5 -25.5
t-10 -40.5v-224q0 -18 -23 -33t-55 -15zM202 -209q-19 0 -32.5 19.5t-13.5 38.5q0 25 20 35l140 65q8 3 14 3q20 0 33.5 -19t13.5 -39q0 -24 -20 -34l-140 -65q-4 -1 -7.5 -2.5t-7.5 -1.5z" />
    <glyph glyph-name="Ncaron" unicode="&#x147;" horiz-adv-x="619" 
d="M132 0q-29 0 -53.5 12t-24.5 36v635q0 25 24.5 36.5t53.5 11.5q28 0 46.5 -4.5t34 -20.5t34.5 -53l162 -309v340q0 25 24.5 36t53.5 11t53.5 -11t24.5 -36v-636q0 -24 -24.5 -36t-53.5 -12q-27 0 -50 8t-37 34l-190 346v-340q0 -24 -24.5 -36t-53.5 -12zM310 819
q-7 0 -17 5l-104 56q-13 8 -19 19.5t-6 24.5q0 17 9 31.5t22 14.5q5 0 11 -3l104 -56l104 56q6 3 11 3q14 0 22.5 -14.5t8.5 -31.5q0 -13 -5.5 -24.5t-19.5 -19.5l-104 -56q-10 -5 -17 -5z" />
    <glyph glyph-name="ncaron" unicode="&#x148;" horiz-adv-x="534" 
d="M122 0q-34 0 -55.5 15t-21.5 33v381q0 21 21.5 34t55.5 13q28 0 48 -13t20 -34v-23q14 29 49 52.5t85 23.5q46 0 84.5 -28.5t62 -76t23.5 -105.5v-224q0 -24 -24.5 -36t-53.5 -12q-27 0 -52 12t-25 36v224q0 19 -9.5 36t-26 28t-36.5 11q-16 0 -31.5 -9t-25.5 -25.5
t-10 -40.5v-224q0 -18 -23 -33t-55 -15zM267 564q-7 0 -17 5l-104 56q-13 8 -19 19.5t-6 24.5q0 17 9 31.5t22 14.5q5 0 11 -3l104 -56l104 56q6 3 11 3q14 0 22.5 -14.5t8.5 -31.5q0 -13 -5.5 -24.5t-19.5 -19.5l-104 -56q-10 -5 -17 -5z" />
    <glyph glyph-name="Eng" unicode="&#x14a;" horiz-adv-x="620" 
d="M406 -217q-49 0 -65 20t-16 43q0 31 17 49t41 18q11 0 16.5 7.5t7.5 21t2 30.5v36q0 11 -2 18.5t-7 15.5l-190 346v-340q0 -24 -24.5 -36t-53.5 -12t-53.5 12t-24.5 36v635q0 25 24.5 36.5t53.5 11.5q28 0 46.5 -4.5t34 -20.5t34.5 -53l162 -309v340q0 25 24.5 36
t53.5 11t53.5 -11t24.5 -36v-712q0 -55 -18.5 -98t-54 -67t-86.5 -24z" />
    <glyph glyph-name="eng" unicode="&#x14b;" horiz-adv-x="535" 
d="M335 -217q-49 0 -65 20t-16 43q0 31 17 49t41 18q12 0 18 7.5t7.5 21t1.5 30.5v300q0 19 -9.5 36t-26 28t-36.5 11q-16 0 -31.5 -9t-25.5 -25.5t-10 -40.5v-224q0 -18 -23 -33t-55 -15q-34 0 -55.5 15t-21.5 33v381q0 21 21.5 34t55.5 13q28 0 48 -13t20 -34v-23
q14 29 49 52.5t85 23.5q46 0 84.5 -28.5t62 -76t23.5 -105.5v-300q0 -55 -18.5 -98t-54 -67t-86.5 -24z" />
    <glyph glyph-name="Omacron" unicode="&#x14c;" horiz-adv-x="583" 
d="M291 -6q-69 0 -124.5 23t-88 75t-32.5 138v265q0 86 32.5 138t88 75t124.5 23t125 -23t88.5 -75t32.5 -138v-265q0 -86 -32.5 -138t-88.5 -75t-125 -23zM291 130q42 0 66 24t24 76v265q0 52 -24 76t-66 24t-65.5 -24t-23.5 -76v-265q0 -52 23.5 -76t65.5 -24zM191 839
q-21 0 -34 13.5t-13 35.5q0 21 13 35.5t34 14.5h200q18 0 33 -14.5t15 -35.5q0 -22 -15 -35.5t-33 -13.5h-200z" />
    <glyph glyph-name="omacron" unicode="&#x14d;" horiz-adv-x="509" 
d="M254 -10q-61 0 -112.5 29.5t-83 78t-31.5 104.5v70q0 56 30.5 104t82.5 77t114 29q61 0 113 -28.5t83.5 -76t31.5 -105.5v-70q0 -55 -31.5 -103.5t-83.5 -78.5t-113 -30zM254 125q20 0 36.5 11t26.5 28.5t10 37.5v70q0 19 -10 36t-26.5 28t-36.5 11t-36.5 -11t-26 -28
t-9.5 -36v-70q0 -20 9.5 -37.5t26 -28.5t36.5 -11zM153 598q-21 0 -34 13.5t-13 35.5q0 21 13 35.5t34 14.5h200q18 0 33 -14.5t15 -35.5q0 -22 -15 -35.5t-33 -13.5h-200z" />
    <glyph glyph-name="Obreve" unicode="&#x14e;" horiz-adv-x="583" 
d="M291 -6q-69 0 -124.5 23t-88 75t-32.5 138v265q0 86 32.5 138t88 75t124.5 23t125 -23t88.5 -75t32.5 -138v-265q0 -86 -32.5 -138t-88.5 -75t-125 -23zM291 130q42 0 66 24t24 76v265q0 52 -24 76t-66 24t-65.5 -24t-23.5 -76v-265q0 -52 23.5 -76t65.5 -24zM292 824
q-46 0 -85 31t-51 76q-4 15 4.5 23.5t23.5 8.5h20q14 0 21 -7t12 -20q7 -21 23 -33.5t32 -12.5q17 0 32 12.5t22 33.5q5 13 12.5 20t20.5 7h20q15 0 23.5 -8.5t4.5 -24.5q-13 -44 -51.5 -75t-83.5 -31z" />
    <glyph glyph-name="obreve" unicode="&#x14f;" horiz-adv-x="509" 
d="M254 -10q-61 0 -112.5 29.5t-83 78t-31.5 104.5v70q0 56 30.5 104t82.5 77t114 29q61 0 113 -28.5t83.5 -76t31.5 -105.5v-70q0 -55 -31.5 -103.5t-83.5 -78.5t-113 -30zM254 125q20 0 36.5 11t26.5 28.5t10 37.5v70q0 19 -10 36t-26.5 28t-36.5 11t-36.5 -11t-26 -28
t-9.5 -36v-70q0 -20 9.5 -37.5t26 -28.5t36.5 -11zM254 583q-46 0 -85 31t-51 76q-4 15 4.5 23.5t23.5 8.5h20q14 0 21 -7t12 -20q7 -21 23 -33.5t32 -12.5q17 0 32 12.5t22 33.5q5 13 12.5 20t20.5 7h20q15 0 23.5 -8.5t4.5 -24.5q-13 -44 -51.5 -75t-83.5 -31z" />
    <glyph glyph-name="Ohungarumlaut" unicode="&#x150;" horiz-adv-x="583" 
d="M291 -6q-69 0 -124.5 23t-88 75t-32.5 138v265q0 86 32.5 138t88 75t124.5 23t125 -23t88.5 -75t32.5 -138v-265q0 -86 -32.5 -138t-88.5 -75t-125 -23zM291 130q42 0 66 24t24 76v265q0 52 -24 76t-66 24t-65.5 -24t-23.5 -76v-265q0 -52 23.5 -76t65.5 -24zM342 815
q-17 0 -31.5 14.5t-14.5 29.5q0 9 7 17l79 95q5 6 10.5 8t11.5 2q16 0 30 -14.5t14 -28.5q0 -9 -6 -17l-79 -95q-8 -11 -21 -11zM182 815q-17 0 -31.5 14.5t-14.5 29.5q0 9 7 17l79 95q5 6 10.5 8t11.5 2q16 0 30 -14.5t14 -28.5q0 -9 -6 -17l-79 -95q-8 -11 -21 -11z" />
    <glyph glyph-name="ohungarumlaut" unicode="&#x151;" horiz-adv-x="509" 
d="M254 -10q-61 0 -112.5 29.5t-83 78t-31.5 104.5v70q0 56 30.5 104t82.5 77t114 29q61 0 113 -28.5t83.5 -76t31.5 -105.5v-70q0 -55 -31.5 -103.5t-83.5 -78.5t-113 -30zM254 125q20 0 36.5 11t26.5 28.5t10 37.5v70q0 19 -10 36t-26.5 28t-36.5 11t-36.5 -11t-26 -28
t-9.5 -36v-70q0 -20 9.5 -37.5t26 -28.5t36.5 -11zM304 574q-17 0 -31.5 14.5t-14.5 29.5q0 9 7 17l79 95q5 6 10.5 8t11.5 2q16 0 30 -14.5t14 -28.5q0 -9 -6 -17l-79 -95q-8 -11 -21 -11zM144 574q-17 0 -31.5 14.5t-14.5 29.5q0 9 7 17l79 95q5 6 10.5 8t11.5 2
q16 0 30 -14.5t14 -28.5q0 -9 -6 -17l-79 -95q-8 -11 -21 -11z" />
    <glyph glyph-name="OE" unicode="&#x152;" horiz-adv-x="826" 
d="M262 -6q-63 0 -111.5 23t-76 75t-27.5 138v265q0 86 27.5 138t76 75t111.5 23q40 0 81 -18.5t60 -55.5v26q0 24 21.5 36t46.5 12h294q25 0 36 -21.5t11 -45.5q0 -28 -12 -48.5t-35 -20.5h-226v-169h108q23 0 35 -18.5t12 -42.5q0 -20 -11 -39.5t-36 -19.5h-108v-170h226
q23 0 35 -20.5t12 -48.5q0 -24 -11 -45.5t-36 -21.5h-294q-25 0 -46.5 12t-21.5 36v20q-19 -37 -60 -55.5t-81 -18.5zM292 130q42 0 66 24t24 76v265q0 52 -24 76t-66 24t-65.5 -24t-23.5 -76v-265q0 -52 23.5 -76t65.5 -24z" />
    <glyph glyph-name="oe" unicode="&#x153;" horiz-adv-x="796" 
d="M254 -10q-61 0 -112.5 29.5t-83 78t-31.5 104.5v70q0 56 30.5 104t82.5 77t114 29q47 0 88 -19.5t70 -52.5q29 33 66 52.5t79 19.5q58 0 106.5 -24t78.5 -66.5t30 -99.5q0 -45 -14.5 -64.5t-37 -24t-45.5 -4.5h-193v-6q0 -37 28 -59.5t74 -22.5q31 0 53 9.5t39 18.5t33 9
q18 0 30.5 -12t19.5 -28t7 -28q0 -19 -23 -40t-64.5 -35.5t-98.5 -14.5q-50 0 -93 19t-75 53q-31 -33 -71 -52.5t-87 -19.5zM254 125q20 0 36.5 11t26.5 28.5t10 37.5v70q0 19 -10 36t-26.5 28t-36.5 11t-36.5 -11t-26 -28t-9.5 -36v-70q0 -20 9.5 -37.5t26 -28.5t36.5 -11z
M482 286h124q11 0 16 5t5 19q0 20 -10.5 33.5t-27 20t-35.5 6.5q-18 0 -34.5 -6.5t-27 -20t-10.5 -33.5v-24z" />
    <glyph glyph-name="Racute" unicode="&#x154;" horiz-adv-x="584" 
d="M463 -6q-15 0 -28.5 6.5t-21.5 22.5l-137 266h-66v-241q0 -24 -24.5 -36t-53.5 -12t-53.5 12t-24.5 36v636q0 19 13 33t35 14h207q69 0 124.5 -19.5t88.5 -66t33 -128.5q0 -56 -15.5 -96.5t-43 -66.5t-62.5 -40l122 -221q3 -4 4 -9t1 -9q0 -19 -15 -38t-37.5 -31
t-45.5 -12zM210 409h99q42 0 66 20.5t24 72.5q0 53 -24 73t-66 20h-99v-186zM262 798q-19 0 -32.5 19.5t-13.5 38.5q0 25 20 35l140 65q8 3 14 3q20 0 33.5 -19t13.5 -39q0 -24 -20 -34l-140 -65q-4 -1 -7.5 -2.5t-7.5 -1.5z" />
    <glyph glyph-name="racute" unicode="&#x155;" horiz-adv-x="394" 
d="M121 0q-33 0 -54.5 15t-21.5 33v381q0 21 21.5 34t54.5 13q29 0 49 -13t20 -34v-37q10 22 28.5 42.5t42 34t48.5 13.5h29q22 0 38.5 -20t16.5 -47q0 -28 -16.5 -48t-38.5 -20h-29q-27 0 -52 -18.5t-41 -51.5t-16 -79v-150q0 -18 -23 -33t-56 -15zM163 559
q-19 0 -32.5 19.5t-13.5 38.5q0 25 20 35l140 65q8 3 14 3q20 0 33.5 -19t13.5 -39q0 -24 -20 -34l-140 -65q-4 -1 -7.5 -2.5t-7.5 -1.5z" />
    <glyph glyph-name="uni0156" unicode="&#x156;" horiz-adv-x="584" 
d="M463 -6q-15 0 -28.5 6.5t-21.5 22.5l-137 266h-66v-241q0 -24 -24.5 -36t-53.5 -12t-53.5 12t-24.5 36v636q0 19 13 33t35 14h207q69 0 124.5 -19.5t88.5 -66t33 -128.5q0 -56 -15.5 -96.5t-43 -66.5t-62.5 -40l122 -221q3 -4 4 -9t1 -9q0 -19 -15 -38t-37.5 -31
t-45.5 -12zM210 409h99q42 0 66 20.5t24 72.5q0 53 -24 73t-66 20h-99v-186zM227 -209q-19 0 -32.5 19.5t-13.5 38.5q0 25 20 35l140 65q8 3 14 3q20 0 33.5 -19t13.5 -39q0 -24 -20 -34l-140 -65q-4 -1 -7.5 -2.5t-7.5 -1.5z" />
    <glyph glyph-name="uni0157" unicode="&#x157;" horiz-adv-x="394" 
d="M121 0q-33 0 -54.5 15t-21.5 33v381q0 21 21.5 34t54.5 13q29 0 49 -13t20 -34v-37q10 22 28.5 42.5t42 34t48.5 13.5h29q22 0 38.5 -20t16.5 -47q0 -28 -16.5 -48t-38.5 -20h-29q-27 0 -52 -18.5t-41 -51.5t-16 -79v-150q0 -18 -23 -33t-56 -15zM57 -211
q-19 0 -32.5 19.5t-13.5 38.5q0 25 20 35l140 65q8 3 14 3q20 0 33.5 -19t13.5 -39q0 -24 -20 -34l-140 -65q-4 -1 -7.5 -2.5t-7.5 -1.5z" />
    <glyph glyph-name="Rcaron" unicode="&#x158;" horiz-adv-x="584" 
d="M463 -6q-15 0 -28.5 6.5t-21.5 22.5l-137 266h-66v-241q0 -24 -24.5 -36t-53.5 -12t-53.5 12t-24.5 36v636q0 19 13 33t35 14h207q69 0 124.5 -19.5t88.5 -66t33 -128.5q0 -56 -15.5 -96.5t-43 -66.5t-62.5 -40l122 -221q3 -4 4 -9t1 -9q0 -19 -15 -38t-37.5 -31
t-45.5 -12zM210 409h99q42 0 66 20.5t24 72.5q0 53 -24 73t-66 20h-99v-186zM292 819q-7 0 -17 5l-104 56q-13 8 -19 19.5t-6 24.5q0 17 9 31.5t22 14.5q5 0 11 -3l104 -56l104 56q6 3 11 3q14 0 22.5 -14.5t8.5 -31.5q0 -13 -5.5 -24.5t-19.5 -19.5l-104 -56q-10 -5 -17 -5
z" />
    <glyph glyph-name="rcaron" unicode="&#x159;" horiz-adv-x="394" 
d="M121 0q-33 0 -54.5 15t-21.5 33v381q0 21 21.5 34t54.5 13q29 0 49 -13t20 -34v-37q10 22 28.5 42.5t42 34t48.5 13.5h29q22 0 38.5 -20t16.5 -47q0 -28 -16.5 -48t-38.5 -20h-29q-27 0 -52 -18.5t-41 -51.5t-16 -79v-150q0 -18 -23 -33t-56 -15zM227 580q-7 0 -17 5
l-104 56q-13 8 -19 19.5t-6 24.5q0 17 9 31.5t22 14.5q5 0 11 -3l104 -56l104 56q6 3 11 3q14 0 22.5 -14.5t8.5 -31.5q0 -13 -5.5 -24.5t-19.5 -19.5l-104 -56q-10 -5 -17 -5z" />
    <glyph glyph-name="Sacute" unicode="&#x15a;" horiz-adv-x="533" 
d="M260 -10q-65 0 -120 19t-88 48.5t-33 62.5q0 17 9 36.5t24.5 33.5t34.5 14q18 0 33.5 -11t34 -26t43 -26t59.5 -11q23 0 45.5 6.5t37 21t14.5 38.5q0 26 -17 44.5t-45.5 33.5t-62 30.5t-67.5 34t-62.5 44t-45.5 61.5t-17 86q0 56 22 95.5t59 64t82.5 36t92.5 11.5
q20 0 53 -3t66.5 -12t56.5 -26.5t23 -46.5q0 -13 -6.5 -32.5t-20 -34.5t-35.5 -15q-18 0 -33.5 9.5t-39 19t-64.5 9.5q-35 0 -57.5 -8.5t-32.5 -22t-10 -29.5q0 -21 17 -36.5t45.5 -29t62 -28t67.5 -34t62.5 -46.5t45.5 -66t17 -93q0 -72 -32.5 -121.5t-88.5 -75t-129 -25.5
zM237 798q-19 0 -32.5 19.5t-13.5 38.5q0 25 20 35l140 65q8 3 14 3q20 0 33.5 -19t13.5 -39q0 -24 -20 -34l-140 -65q-4 -1 -7.5 -2.5t-7.5 -1.5z" />
    <glyph glyph-name="sacute" unicode="&#x15b;" horiz-adv-x="429" 
d="M211 -10q-52 0 -95.5 13t-69 34t-25.5 45q0 12 6.5 28t18 28t26.5 12q16 0 32 -11.5t39.5 -22.5t63.5 -11t51 11.5t11 21.5q0 17 -17 26.5t-43.5 16t-56.5 15t-56.5 23.5t-43.5 41t-17 68q0 37 17.5 72.5t58.5 58.5t112 23q44 0 82.5 -9t63 -25.5t24.5 -37.5
q0 -10 -6.5 -27.5t-19 -31.5t-30.5 -14q-13 0 -29 7.5t-36 15t-47 7.5q-20 0 -32.5 -5t-18.5 -12t-6 -15q0 -14 17 -21.5t44 -14t57 -15t57 -25t44 -44t17 -71.5q0 -70 -49.5 -112t-143.5 -42zM185 543q-19 0 -32.5 19.5t-13.5 38.5q0 25 20 35l140 65q8 3 14 3
q20 0 33.5 -19t13.5 -39q0 -24 -20 -34l-140 -65q-4 -1 -7.5 -2.5t-7.5 -1.5z" />
    <glyph glyph-name="Scircumflex" unicode="&#x15c;" horiz-adv-x="533" 
d="M260 -10q-65 0 -120 19t-88 48.5t-33 62.5q0 17 9 36.5t24.5 33.5t34.5 14q18 0 33.5 -11t34 -26t43 -26t59.5 -11q23 0 45.5 6.5t37 21t14.5 38.5q0 26 -17 44.5t-45.5 33.5t-62 30.5t-67.5 34t-62.5 44t-45.5 61.5t-17 86q0 56 22 95.5t59 64t82.5 36t92.5 11.5
q20 0 53 -3t66.5 -12t56.5 -26.5t23 -46.5q0 -13 -6.5 -32.5t-20 -34.5t-35.5 -15q-18 0 -33.5 9.5t-39 19t-64.5 9.5q-35 0 -57.5 -8.5t-32.5 -22t-10 -29.5q0 -21 17 -36.5t45.5 -29t62 -28t67.5 -34t62.5 -46.5t45.5 -66t17 -93q0 -72 -32.5 -121.5t-88.5 -75t-129 -25.5
zM152 807q-13 0 -22 14.5t-9 31.5q0 13 6 25t19 19l104 56q10 5 17 5t17 -5l104 -56q14 -7 19.5 -19t5.5 -25q0 -17 -8.5 -31.5t-22.5 -14.5q-2 0 -5 1l-6 2l-104 56l-104 -56l-6 -2t-5 -1z" />
    <glyph glyph-name="scircumflex" unicode="&#x15d;" horiz-adv-x="429" 
d="M211 -10q-52 0 -95.5 13t-69 34t-25.5 45q0 12 6.5 28t18 28t26.5 12q16 0 32 -11.5t39.5 -22.5t63.5 -11t51 11.5t11 21.5q0 17 -17 26.5t-43.5 16t-56.5 15t-56.5 23.5t-43.5 41t-17 68q0 37 17.5 72.5t58.5 58.5t112 23q44 0 82.5 -9t63 -25.5t24.5 -37.5
q0 -10 -6.5 -27.5t-19 -31.5t-30.5 -14q-13 0 -29 7.5t-36 15t-47 7.5q-20 0 -32.5 -5t-18.5 -12t-6 -15q0 -14 17 -21.5t44 -14t57 -15t57 -25t44 -44t17 -71.5q0 -70 -49.5 -112t-143.5 -42zM100 552q-13 0 -22 14.5t-9 31.5q0 13 6 25t19 19l104 56q10 5 17 5t17 -5
l104 -56q14 -7 19.5 -19t5.5 -25q0 -17 -8.5 -31.5t-22.5 -14.5q-2 0 -5 1l-6 2l-104 56l-104 -56l-6 -2t-5 -1z" />
    <glyph glyph-name="Scedilla" unicode="&#x15e;" horiz-adv-x="533" 
d="M260 -10q-65 0 -120 19t-88 48.5t-33 62.5q0 17 9 36.5t24.5 33.5t34.5 14q18 0 33.5 -11t34 -26t43 -26t59.5 -11q23 0 45.5 6.5t37 21t14.5 38.5q0 26 -17 44.5t-45.5 33.5t-62 30.5t-67.5 34t-62.5 44t-45.5 61.5t-17 86q0 56 22 95.5t59 64t82.5 36t92.5 11.5
q20 0 53 -3t66.5 -12t56.5 -26.5t23 -46.5q0 -13 -6.5 -32.5t-20 -34.5t-35.5 -15q-18 0 -33.5 9.5t-39 19t-64.5 9.5q-35 0 -57.5 -8.5t-32.5 -22t-10 -29.5q0 -21 17 -36.5t45.5 -29t62 -28t67.5 -34t62.5 -46.5t45.5 -66t17 -93q0 -72 -32.5 -121.5t-88.5 -75t-129 -25.5
zM276 -219q-18 0 -38.5 3.5t-35 10.5t-14.5 17q0 4 2.5 14t8.5 19t15 9t21.5 -7t36.5 -7q20 0 33 7.5t13 23.5q0 13 -10 22.5t-33 11.5l-62 6l29 98h64l-19 -56q51 -2 75.5 -24.5t24.5 -54.5q0 -17 -9.5 -39t-33.5 -38t-68 -16z" />
    <glyph glyph-name="scedilla" unicode="&#x15f;" horiz-adv-x="429" 
d="M211 -10q-52 0 -95.5 13t-69 34t-25.5 45q0 12 6.5 28t18 28t26.5 12q16 0 32 -11.5t39.5 -22.5t63.5 -11t51 11.5t11 21.5q0 17 -17 26.5t-43.5 16t-56.5 15t-56.5 23.5t-43.5 41t-17 68q0 37 17.5 72.5t58.5 58.5t112 23q44 0 82.5 -9t63 -25.5t24.5 -37.5
q0 -10 -6.5 -27.5t-19 -31.5t-30.5 -14q-13 0 -29 7.5t-36 15t-47 7.5q-20 0 -32.5 -5t-18.5 -12t-6 -15q0 -14 17 -21.5t44 -14t57 -15t57 -25t44 -44t17 -71.5q0 -70 -49.5 -112t-143.5 -42zM224 -219q-18 0 -38.5 3.5t-35 10.5t-14.5 17q0 4 2.5 14t8.5 19t15 9t21.5 -7
t36.5 -7q20 0 33 7.5t13 23.5q0 13 -10 22.5t-33 11.5l-62 6l29 98h64l-19 -56q51 -2 75.5 -24.5t24.5 -54.5q0 -17 -9.5 -39t-33.5 -38t-68 -16z" />
    <glyph glyph-name="Scaron" unicode="&#x160;" horiz-adv-x="533" 
d="M260 -10q-65 0 -120 19t-88 48.5t-33 62.5q0 17 9 36.5t24.5 33.5t34.5 14q18 0 33.5 -11t34 -26t43 -26t59.5 -11q23 0 45.5 6.5t37 21t14.5 38.5q0 26 -17 44.5t-45.5 33.5t-62 30.5t-67.5 34t-62.5 44t-45.5 61.5t-17 86q0 56 22 95.5t59 64t82.5 36t92.5 11.5
q20 0 53 -3t66.5 -12t56.5 -26.5t23 -46.5q0 -13 -6.5 -32.5t-20 -34.5t-35.5 -15q-18 0 -33.5 9.5t-39 19t-64.5 9.5q-35 0 -57.5 -8.5t-32.5 -22t-10 -29.5q0 -21 17 -36.5t45.5 -29t62 -28t67.5 -34t62.5 -46.5t45.5 -66t17 -93q0 -72 -32.5 -121.5t-88.5 -75t-129 -25.5
zM267 819q-7 0 -17 5l-104 56q-13 8 -19 19.5t-6 24.5q0 17 9 31.5t22 14.5q5 0 11 -3l104 -56l104 56q6 3 11 3q14 0 22.5 -14.5t8.5 -31.5q0 -13 -5.5 -24.5t-19.5 -19.5l-104 -56q-10 -5 -17 -5z" />
    <glyph glyph-name="scaron" unicode="&#x161;" horiz-adv-x="429" 
d="M211 -10q-52 0 -95.5 13t-69 34t-25.5 45q0 12 6.5 28t18 28t26.5 12q16 0 32 -11.5t39.5 -22.5t63.5 -11t51 11.5t11 21.5q0 17 -17 26.5t-43.5 16t-56.5 15t-56.5 23.5t-43.5 41t-17 68q0 37 17.5 72.5t58.5 58.5t112 23q44 0 82.5 -9t63 -25.5t24.5 -37.5
q0 -10 -6.5 -27.5t-19 -31.5t-30.5 -14q-13 0 -29 7.5t-36 15t-47 7.5q-20 0 -32.5 -5t-18.5 -12t-6 -15q0 -14 17 -21.5t44 -14t57 -15t57 -25t44 -44t17 -71.5q0 -70 -49.5 -112t-143.5 -42zM215 564q-7 0 -17 5l-104 56q-13 8 -19 19.5t-6 24.5q0 17 9 31.5t22 14.5
q5 0 11 -3l104 -56l104 56q6 3 11 3q14 0 22.5 -14.5t8.5 -31.5q0 -13 -5.5 -24.5t-19.5 -19.5l-104 -56q-10 -5 -17 -5z" />
    <glyph glyph-name="uni021A" unicode="&#x162;" horiz-adv-x="542" 
d="M271 0q-29 0 -53.5 12t-24.5 36v543h-138q-22 0 -34.5 21.5t-12.5 49.5q0 25 11 47t36 22h432q25 0 36 -22t11 -47q0 -28 -12 -49.5t-35 -21.5h-138v-543q0 -24 -24.5 -36t-53.5 -12zM206 -209q-19 0 -32.5 19.5t-13.5 38.5q0 25 20 35l140 65q8 3 14 3q20 0 33.5 -19
t13.5 -39q0 -24 -20 -34l-140 -65q-4 -1 -7.5 -2.5t-7.5 -1.5z" />
    <glyph glyph-name="uni021B" unicode="&#x163;" horiz-adv-x="364" 
d="M239 0q-95 0 -145.5 40.5t-50.5 128.5v467q0 21 25 34t52 13q29 0 53.5 -13t24.5 -34v-160h113q19 0 28.5 -17.5t9.5 -37.5q0 -21 -9.5 -38t-28.5 -17h-113v-197q0 -22 9 -30.5t32 -8.5h43q34 0 50 -20.5t16 -44.5q0 -25 -16 -45t-50 -20h-43zM117 -209q-19 0 -32.5 19.5
t-13.5 38.5q0 25 20 35l140 65q8 3 14 3q20 0 33.5 -19t13.5 -39q0 -24 -20 -34l-140 -65q-4 -1 -7.5 -2.5t-7.5 -1.5z" />
    <glyph glyph-name="Tcaron" unicode="&#x164;" horiz-adv-x="542" 
d="M271 0q-29 0 -53.5 12t-24.5 36v543h-138q-22 0 -34.5 21.5t-12.5 49.5q0 25 11 47t36 22h432q25 0 36 -22t11 -47q0 -28 -12 -49.5t-35 -21.5h-138v-543q0 -24 -24.5 -36t-53.5 -12zM271 819q-7 0 -17 5l-104 56q-13 8 -19 19.5t-6 24.5q0 17 9 31.5t22 14.5q5 0 11 -3
l104 -56l104 56q6 3 11 3q14 0 22.5 -14.5t8.5 -31.5q0 -13 -5.5 -24.5t-19.5 -19.5l-104 -56q-10 -5 -17 -5z" />
    <glyph glyph-name="tcaron" unicode="&#x165;" horiz-adv-x="364" 
d="M239 0q-95 0 -145.5 40.5t-50.5 128.5v467q0 21 25 34t52 13q29 0 53.5 -13t24.5 -34v-160h113q19 0 28.5 -17.5t9.5 -37.5q0 -21 -9.5 -38t-28.5 -17h-113v-197q0 -22 9 -30.5t32 -8.5h43q34 0 50 -20.5t16 -44.5q0 -25 -16 -45t-50 -20h-43zM292 514q-16 0 -33 10
t-17 29q0 8 4 16l25 54q-18 11 -29 28.5t-11 39.5q0 32 22.5 54.5t53.5 22.5q32 0 54.5 -22.5t22.5 -53.5q0 -4 -1.5 -11t-7.5 -22t-18.5 -45.5t-34.5 -81.5q-4 -10 -13 -14t-17 -4z" />
    <glyph glyph-name="Tbar" unicode="&#x166;" horiz-adv-x="542" 
d="M271 0q-29 0 -53.5 12t-24.5 36v262h-68q-19 0 -28.5 17t-9.5 38q0 20 9.5 37.5t28.5 17.5h68v171h-138q-22 0 -34.5 21.5t-12.5 49.5q0 25 11 47t36 22h432q25 0 36 -22t11 -47q0 -28 -12 -49.5t-35 -21.5h-138v-171h67q19 0 28.5 -17.5t9.5 -37.5q0 -22 -9.5 -38.5
t-28.5 -16.5h-67v-262q0 -24 -24.5 -36t-53.5 -12z" />
    <glyph glyph-name="tbar" unicode="&#x167;" horiz-adv-x="366" 
d="M239 0q-95 0 -145.5 40.5t-50.5 128.5v467q0 21 25 34t52 13q29 0 53.5 -13t24.5 -34v-160h113q19 0 28.5 -17.5t9.5 -37.5q0 -21 -9.5 -38t-28.5 -17h-113v-62h113q19 0 28.5 -17.5t9.5 -37.5q0 -22 -9.5 -38.5t-28.5 -16.5h-113v-25q0 -22 9 -30.5t32 -8.5h43
q34 0 50 -20.5t16 -44.5q0 -25 -16 -45t-50 -20h-43z" />
    <glyph glyph-name="Utilde" unicode="&#x168;" horiz-adv-x="606" 
d="M303 -6q-71 0 -128 23t-90.5 75t-33.5 138v454q0 25 24 36t54 11q29 0 53.5 -11t24.5 -36v-454q0 -51 25.5 -75.5t70.5 -24.5t70.5 24.5t25.5 75.5v454q0 25 24 36t54 11q29 0 53.5 -11t24.5 -36v-454q0 -86 -33.5 -138t-90.5 -75t-128 -23zM395 817q-35 0 -59 7
t-43.5 13.5t-43.5 6.5q-21 0 -36 -5t-26.5 -10.5t-23.5 -5.5q-15 0 -23.5 10t-11.5 22t-3 17q0 27 10.5 41.5t25 21.5t28.5 8.5t21 1.5q31 0 53 -6.5t44 -13.5t49 -7q21 0 36 5.5t27 10.5t23 5q16 0 24 -10t11 -22t3 -17q0 -27 -10.5 -41.5t-25 -21.5t-28.5 -8.5t-21 -1.5z
" />
    <glyph glyph-name="utilde" unicode="&#x169;" horiz-adv-x="535" 
d="M268 -10q-62 0 -114 29.5t-83 77.5t-31 103v228q0 18 23 33t55 15q31 0 54 -15t23 -33v-228q0 -19 10 -36t26.5 -28t36.5 -11t36.5 11t26 28t9.5 36v229q0 19 23.5 33t54.5 14q34 0 55.5 -14t21.5 -33v-229q0 -56 -31 -104t-82.5 -77t-113.5 -29zM360 562q-35 0 -59 7
t-43.5 13.5t-43.5 6.5q-21 0 -36 -5t-26.5 -10.5t-23.5 -5.5q-15 0 -23.5 10t-11.5 22t-3 17q0 27 10.5 41.5t25 21.5t28.5 8.5t21 1.5q31 0 53 -6.5t44 -13.5t49 -7q21 0 36 5.5t27 10.5t23 5q16 0 24 -10t11 -22t3 -17q0 -27 -10.5 -41.5t-25 -21.5t-28.5 -8.5t-21 -1.5z
" />
    <glyph glyph-name="Umacron" unicode="&#x16a;" horiz-adv-x="606" 
d="M303 -6q-71 0 -128 23t-90.5 75t-33.5 138v454q0 25 24 36t54 11q29 0 53.5 -11t24.5 -36v-454q0 -51 25.5 -75.5t70.5 -24.5t70.5 24.5t25.5 75.5v454q0 25 24 36t54 11q29 0 53.5 -11t24.5 -36v-454q0 -86 -33.5 -138t-90.5 -75t-128 -23zM202 839q-21 0 -34 13.5
t-13 35.5q0 21 13 35.5t34 14.5h200q18 0 33 -14.5t15 -35.5q0 -22 -15 -35.5t-33 -13.5h-200z" />
    <glyph glyph-name="umacron" unicode="&#x16b;" horiz-adv-x="535" 
d="M268 -10q-62 0 -114 29.5t-83 77.5t-31 103v228q0 18 23 33t55 15q31 0 54 -15t23 -33v-228q0 -19 10 -36t26.5 -28t36.5 -11t36.5 11t26 28t9.5 36v229q0 19 23.5 33t54.5 14q34 0 55.5 -14t21.5 -33v-229q0 -56 -31 -104t-82.5 -77t-113.5 -29zM167 584q-21 0 -34 13.5
t-13 35.5q0 21 13 35.5t34 14.5h200q18 0 33 -14.5t15 -35.5q0 -22 -15 -35.5t-33 -13.5h-200z" />
    <glyph glyph-name="Ubreve" unicode="&#x16c;" horiz-adv-x="606" 
d="M303 -6q-71 0 -128 23t-90.5 75t-33.5 138v454q0 25 24 36t54 11q29 0 53.5 -11t24.5 -36v-454q0 -51 25.5 -75.5t70.5 -24.5t70.5 24.5t25.5 75.5v454q0 25 24 36t54 11q29 0 53.5 -11t24.5 -36v-454q0 -86 -33.5 -138t-90.5 -75t-128 -23zM303 824q-46 0 -85 31t-51 76
q-4 15 4.5 23.5t23.5 8.5h20q14 0 21 -7t12 -20q7 -21 23 -33.5t32 -12.5q17 0 32 12.5t22 33.5q5 13 12.5 20t20.5 7h20q15 0 23.5 -8.5t4.5 -24.5q-13 -44 -51.5 -75t-83.5 -31z" />
    <glyph glyph-name="ubreve" unicode="&#x16d;" horiz-adv-x="535" 
d="M268 -10q-62 0 -114 29.5t-83 77.5t-31 103v228q0 18 23 33t55 15q31 0 54 -15t23 -33v-228q0 -19 10 -36t26.5 -28t36.5 -11t36.5 11t26 28t9.5 36v229q0 19 23.5 33t54.5 14q34 0 55.5 -14t21.5 -33v-229q0 -56 -31 -104t-82.5 -77t-113.5 -29zM268 569q-46 0 -85 31
t-51 76q-4 15 4.5 23.5t23.5 8.5h20q14 0 21 -7t12 -20q7 -21 23 -33.5t32 -12.5q17 0 32 12.5t22 33.5q5 13 12.5 20t20.5 7h20q15 0 23.5 -8.5t4.5 -24.5q-13 -44 -51.5 -75t-83.5 -31z" />
    <glyph glyph-name="Uring" unicode="&#x16e;" horiz-adv-x="606" 
d="M303 -6q-71 0 -128 23t-90.5 75t-33.5 138v454q0 25 24 36t54 11q29 0 53.5 -11t24.5 -36v-454q0 -51 25.5 -75.5t70.5 -24.5t70.5 24.5t25.5 75.5v454q0 25 24 36t54 11q29 0 53.5 -11t24.5 -36v-454q0 -86 -33.5 -138t-90.5 -75t-128 -23zM302 799q-26 0 -49 14.5
t-36.5 38t-13.5 50.5q0 26 13.5 49t36 37.5t49.5 14.5t50 -14t37 -37t14 -50t-14 -50.5t-37 -38t-50 -14.5zM303 859q17 0 28 13t11 29q0 15 -11 27t-28 12t-29 -12.5t-12 -26.5q0 -15 12 -28.5t29 -13.5z" />
    <glyph glyph-name="uring" unicode="&#x16f;" horiz-adv-x="535" 
d="M268 -10q-62 0 -114 29.5t-83 77.5t-31 103v228q0 18 23 33t55 15q31 0 54 -15t23 -33v-228q0 -19 10 -36t26.5 -28t36.5 -11t36.5 11t26 28t9.5 36v229q0 19 23.5 33t54.5 14q34 0 55.5 -14t21.5 -33v-229q0 -56 -31 -104t-82.5 -77t-113.5 -29zM267 544q-26 0 -49 14.5
t-36.5 38t-13.5 50.5q0 26 13.5 49t36 37.5t49.5 14.5t50 -14t37 -37t14 -50t-14 -50.5t-37 -38t-50 -14.5zM268 604q17 0 28 13t11 29q0 15 -11 27t-28 12t-29 -12.5t-12 -26.5q0 -15 12 -28.5t29 -13.5z" />
    <glyph glyph-name="Uhungarumlaut" unicode="&#x170;" horiz-adv-x="606" 
d="M303 -6q-71 0 -128 23t-90.5 75t-33.5 138v454q0 25 24 36t54 11q29 0 53.5 -11t24.5 -36v-454q0 -51 25.5 -75.5t70.5 -24.5t70.5 24.5t25.5 75.5v454q0 25 24 36t54 11q29 0 53.5 -11t24.5 -36v-454q0 -86 -33.5 -138t-90.5 -75t-128 -23zM353 815q-17 0 -31.5 14.5
t-14.5 29.5q0 9 7 17l79 95q5 6 10.5 8t11.5 2q16 0 30 -14.5t14 -28.5q0 -9 -6 -17l-79 -95q-8 -11 -21 -11zM193 815q-17 0 -31.5 14.5t-14.5 29.5q0 9 7 17l79 95q5 6 10.5 8t11.5 2q16 0 30 -14.5t14 -28.5q0 -9 -6 -17l-79 -95q-8 -11 -21 -11z" />
    <glyph glyph-name="uhungarumlaut" unicode="&#x171;" horiz-adv-x="535" 
d="M268 -10q-62 0 -114 29.5t-83 77.5t-31 103v228q0 18 23 33t55 15q31 0 54 -15t23 -33v-228q0 -19 10 -36t26.5 -28t36.5 -11t36.5 11t26 28t9.5 36v229q0 19 23.5 33t54.5 14q34 0 55.5 -14t21.5 -33v-229q0 -56 -31 -104t-82.5 -77t-113.5 -29zM318 560
q-17 0 -31.5 14.5t-14.5 29.5q0 9 7 17l79 95q5 6 10.5 8t11.5 2q16 0 30 -14.5t14 -28.5q0 -9 -6 -17l-79 -95q-8 -11 -21 -11zM158 560q-17 0 -31.5 14.5t-14.5 29.5q0 9 7 17l79 95q5 6 10.5 8t11.5 2q16 0 30 -14.5t14 -28.5q0 -9 -6 -17l-79 -95q-8 -11 -21 -11z" />
    <glyph glyph-name="Uogonek" unicode="&#x172;" horiz-adv-x="606" 
d="M303 -6q-71 0 -128 23t-90.5 75t-33.5 138v454q0 25 24 36t54 11q29 0 53.5 -11t24.5 -36v-454q0 -51 25.5 -75.5t70.5 -24.5t70.5 24.5t25.5 75.5v454q0 25 24 36t54 11q29 0 53.5 -11t24.5 -36v-454q0 -86 -33.5 -138t-90.5 -75t-128 -23zM376 -218q-44 0 -71.5 13
t-40.5 35.5t-13 48.5q0 40 26.5 82t72.5 67l53 -19q-34 -19 -56.5 -53t-22.5 -63q0 -21 13.5 -34.5t44.5 -13.5q14 0 19.5 -11.5t5.5 -22.5t-5.5 -20t-25.5 -9z" />
    <glyph glyph-name="uogonek" unicode="&#x173;" horiz-adv-x="535" 
d="M268 -10q-62 0 -114 29.5t-83 77.5t-31 103v228q0 18 23 33t55 15q31 0 54 -15t23 -33v-228q0 -19 10 -36t26.5 -28t36.5 -11t36.5 11t26 28t9.5 36v229q0 19 23.5 33t54.5 14q34 0 55.5 -14t21.5 -33v-229q0 -56 -31 -104t-82.5 -77t-113.5 -29zM332 -218
q-44 0 -71.5 13t-40.5 35.5t-13 48.5q0 40 26.5 82t72.5 67l53 -19q-34 -19 -56.5 -53t-22.5 -63q0 -21 13.5 -34.5t44.5 -13.5q14 0 19.5 -11.5t5.5 -22.5t-5.5 -20t-25.5 -9z" />
    <glyph glyph-name="Wcircumflex" unicode="&#x174;" horiz-adv-x="920" 
d="M307 -6q-34 0 -64.5 13t-38.5 39l-199 610q-2 6 -2 13q0 17 16 31t39.5 22.5t45.5 8.5q18 0 32 -6.5t18 -22.5l152 -513l79 338q5 20 27.5 30.5t47.5 10.5q26 0 48.5 -10.5t26.5 -30.5l79 -338l152 513q5 16 18.5 22.5t31.5 6.5q23 0 46 -8.5t39 -22.5t16 -31
q0 -7 -2 -13l-199 -610q-9 -26 -38.5 -39t-64.5 -13q-34 0 -64.5 13t-36.5 39l-52 237l-52 -237q-6 -26 -36.5 -39t-64.5 -13zM345 807q-13 0 -22 14.5t-9 31.5q0 13 6 25t19 19l104 56q10 5 17 5t17 -5l104 -56q14 -7 19.5 -19t5.5 -25q0 -17 -8.5 -31.5t-22.5 -14.5
q-2 0 -5 1l-6 2l-104 56l-104 -56l-6 -2t-5 -1z" />
    <glyph glyph-name="wcircumflex" unicode="&#x175;" horiz-adv-x="702" 
d="M220 -13q-19 0 -36 6t-23 21l-154 385q-3 8 -4 12.5t-1 8.5q0 18 17 32t41 22t44 8q15 0 27 -5.5t16 -18.5l89 -254l64 215q6 20 20 25t31 5t31 -5t20 -25l64 -215l89 254q8 24 42 24q19 0 43 -8t41.5 -22.5t17.5 -33.5q0 -4 -1 -9t-3 -10l-154 -385q-6 -15 -23 -21
t-37 -6q-22 0 -40.5 7t-23.5 20l-66 174l-66 -174q-4 -13 -23 -20t-42 -7zM236 552q-13 0 -22 14.5t-9 31.5q0 13 6 25t19 19l104 56q10 5 17 5t17 -5l104 -56q14 -7 19.5 -19t5.5 -25q0 -17 -8.5 -31.5t-22.5 -14.5q-2 0 -5 1l-6 2l-104 56l-104 -56l-6 -2t-5 -1z" />
    <glyph glyph-name="Ycircumflex" unicode="&#x176;" horiz-adv-x="590" 
d="M295 0q-29 0 -53.5 12t-24.5 36v251q0 8 -4 14l-207 343q-1 3 -1.5 6t-0.5 5q0 19 17.5 33t42.5 22.5t46 8.5q19 0 28 -7.5t17 -21.5l140 -257l139 257q8 14 17 21.5t28 7.5q22 0 46.5 -8.5t42 -22.5t17.5 -33v-5t-2 -6l-206 -343q-4 -6 -4 -14v-251q0 -24 -24.5 -36
t-53.5 -12zM180 807q-13 0 -22 14.5t-9 31.5q0 13 6 25t19 19l104 56q10 5 17 5t17 -5l104 -56q14 -7 19.5 -19t5.5 -25q0 -17 -8.5 -31.5t-22.5 -14.5q-2 0 -5 1l-6 2l-104 56l-104 -56l-6 -2t-5 -1z" />
    <glyph glyph-name="ycircumflex" unicode="&#x177;" horiz-adv-x="496" 
d="M72 -217q-30 0 -50.5 11t-20.5 55q0 26 8.5 45t29.5 19q14 0 37 2.5t47.5 14t41 38t16.5 73.5l-175 348q-5 10 -5 20q0 20 18 37t42.5 27t44.5 10q14 0 26 -5.5t17 -19.5l113 -271l83 271q5 14 16.5 19.5t23.5 5.5q18 0 43.5 -10.5t44.5 -27.5t19 -39q0 -10 -4 -17
l-142 -354q-19 -47 -36 -92t-43.5 -81t-72.5 -57.5t-122 -21.5zM133 552q-13 0 -22 14.5t-9 31.5q0 13 6 25t19 19l104 56q10 5 17 5t17 -5l104 -56q14 -7 19.5 -19t5.5 -25q0 -17 -8.5 -31.5t-22.5 -14.5q-2 0 -5 1l-6 2l-104 56l-104 -56l-6 -2t-5 -1z" />
    <glyph glyph-name="Ydieresis" unicode="&#x178;" horiz-adv-x="590" 
d="M295 0q-29 0 -53.5 12t-24.5 36v251q0 8 -4 14l-207 343q-1 3 -1.5 6t-0.5 5q0 19 17.5 33t42.5 22.5t46 8.5q19 0 28 -7.5t17 -21.5l140 -257l139 257q8 14 17 21.5t28 7.5q22 0 46.5 -8.5t42 -22.5t17.5 -33v-5t-2 -6l-206 -343q-4 -6 -4 -14v-251q0 -24 -24.5 -36
t-53.5 -12zM374 809q-23 0 -40 18t-17 41t17 40.5t40 17.5t39.5 -17.5t16.5 -40.5t-16.5 -41t-39.5 -18zM214 809q-23 0 -40 18t-17 41t17 40.5t40 17.5t39.5 -17.5t16.5 -40.5t-16.5 -41t-39.5 -18z" />
    <glyph glyph-name="Zacute" unicode="&#x179;" horiz-adv-x="536" 
d="M54 0q-24 0 -34.5 11.5t-10.5 29.5q0 26 17 55l282 499h-232q-22 0 -34.5 20.5t-12.5 47.5q0 25 11 46.5t36 21.5h386q23 0 34 -11.5t11 -29.5q0 -24 -17 -55l-282 -499h272q23 0 35 -22t12 -46t-12 -46t-35 -22h-426zM238 798q-19 0 -32.5 19.5t-13.5 38.5q0 25 20 35
l140 65q8 3 14 3q20 0 33.5 -19t13.5 -39q0 -24 -20 -34l-140 -65q-4 -1 -7.5 -2.5t-7.5 -1.5z" />
    <glyph glyph-name="zacute" unicode="&#x17a;" horiz-adv-x="448" 
d="M69 0q-28 0 -39.5 17.5t-11.5 36.5t8.5 35t18.5 29l177 233h-153q-18 0 -31 18.5t-13 44.5q0 25 12 43.5t32 18.5h299q19 0 33.5 -12.5t14.5 -38.5q0 -34 -25 -67l-178 -233h177q18 0 31 -18.5t13 -44.5q0 -25 -12 -43.5t-32 -18.5h-321zM194 543q-19 0 -32.5 19.5
t-13.5 38.5q0 25 20 35l140 65q8 3 14 3q20 0 33.5 -19t13.5 -39q0 -24 -20 -34l-140 -65q-4 -1 -7.5 -2.5t-7.5 -1.5z" />
    <glyph glyph-name="Zdotaccent" unicode="&#x17b;" horiz-adv-x="536" 
d="M54 0q-24 0 -34.5 11.5t-10.5 29.5q0 26 17 55l282 499h-232q-22 0 -34.5 20.5t-12.5 47.5q0 25 11 46.5t36 21.5h386q23 0 34 -11.5t11 -29.5q0 -24 -17 -55l-282 -499h272q23 0 35 -22t12 -46t-12 -46t-35 -22h-426zM268 809q-23 0 -40 18t-17 41t17 40.5t40 17.5
t39.5 -17.5t16.5 -40.5t-16.5 -41t-39.5 -18z" />
    <glyph glyph-name="zdotaccent" unicode="&#x17c;" horiz-adv-x="448" 
d="M69 0q-28 0 -39.5 17.5t-11.5 36.5t8.5 35t18.5 29l177 233h-153q-18 0 -31 18.5t-13 44.5q0 25 12 43.5t32 18.5h299q19 0 33.5 -12.5t14.5 -38.5q0 -34 -25 -67l-178 -233h177q18 0 31 -18.5t13 -44.5q0 -25 -12 -43.5t-32 -18.5h-321zM224 554q-23 0 -40 18t-17 41
t17 40.5t40 17.5t39.5 -17.5t16.5 -40.5t-16.5 -41t-39.5 -18z" />
    <glyph glyph-name="Zcaron" unicode="&#x17d;" horiz-adv-x="536" 
d="M54 0q-24 0 -34.5 11.5t-10.5 29.5q0 26 17 55l282 499h-232q-22 0 -34.5 20.5t-12.5 47.5q0 25 11 46.5t36 21.5h386q23 0 34 -11.5t11 -29.5q0 -24 -17 -55l-282 -499h272q23 0 35 -22t12 -46t-12 -46t-35 -22h-426zM268 819q-7 0 -17 5l-104 56q-13 8 -19 19.5
t-6 24.5q0 17 9 31.5t22 14.5q5 0 11 -3l104 -56l104 56q6 3 11 3q14 0 22.5 -14.5t8.5 -31.5q0 -13 -5.5 -24.5t-19.5 -19.5l-104 -56q-10 -5 -17 -5z" />
    <glyph glyph-name="zcaron" unicode="&#x17e;" horiz-adv-x="448" 
d="M69 0q-28 0 -39.5 17.5t-11.5 36.5t8.5 35t18.5 29l177 233h-153q-18 0 -31 18.5t-13 44.5q0 25 12 43.5t32 18.5h299q19 0 33.5 -12.5t14.5 -38.5q0 -34 -25 -67l-178 -233h177q18 0 31 -18.5t13 -44.5q0 -25 -12 -43.5t-32 -18.5h-321zM224 564q-7 0 -17 5l-104 56
q-13 8 -19 19.5t-6 24.5q0 17 9 31.5t22 14.5q5 0 11 -3l104 -56l104 56q6 3 11 3q14 0 22.5 -14.5t8.5 -31.5q0 -13 -5.5 -24.5t-19.5 -19.5l-104 -56q-10 -5 -17 -5z" />
    <glyph glyph-name="florin" unicode="&#x192;" horiz-adv-x="435" 
d="M8 -137q-22 0 -34 20.5t-12 47.5q0 32 14.5 54t36.5 22h23q10 0 17.5 10t13 27t8.5 38l64 478q8 58 40 105t81 75t104 28h65q20 0 32.5 -19t12.5 -46q0 -31 -15 -50.5t-35 -19.5h-61q-20 0 -34.5 -8.5t-22.5 -24.5t-12 -40l-15 -103h116q19 0 28.5 -17.5t9.5 -37.5
q0 -21 -9.5 -38t-28.5 -17h-132l-37 -265q-8 -58 -30.5 -108t-62 -80.5t-99.5 -30.5h-26z" />
    <glyph glyph-name="Ohorn" unicode="&#x1a0;" horiz-adv-x="583" 
d="M291 -6q-69 0 -124.5 23t-88 75t-32.5 138v265q0 86 32.5 138t88 75t124.5 23t125 -23t88.5 -75t32.5 -138v-265q0 -86 -32.5 -138t-88.5 -75t-125 -23zM291 130q42 0 66 24t24 76v265q0 52 -24 76t-66 24t-65.5 -24t-23.5 -76v-265q0 -52 23.5 -76t65.5 -24zM313 632
v100q39 0 62 15t23 47q0 18 13 35.5t38 17.5q28 0 38.5 -18.5t10.5 -34.5q0 -43 -19 -80t-59.5 -59.5t-106.5 -22.5z" />
    <glyph glyph-name="ohorn" unicode="&#x1a1;" horiz-adv-x="509" 
d="M254 -10q-61 0 -112.5 29.5t-83 78t-31.5 104.5v70q0 56 30.5 104t82.5 77t114 29q61 0 113 -28.5t83.5 -76t31.5 -105.5v-70q0 -55 -31.5 -103.5t-83.5 -78.5t-113 -30zM254 125q20 0 36.5 11t26.5 28.5t10 37.5v70q0 19 -10 36t-26.5 28t-36.5 11t-36.5 -11t-26 -28
t-9.5 -36v-70q0 -20 9.5 -37.5t26 -28.5t36.5 -11zM299 377v100q39 0 62 15t23 47q0 18 13 35.5t38 17.5q28 0 38.5 -18.5t10.5 -34.5q0 -43 -19 -80t-59.5 -59.5t-106.5 -22.5z" />
    <glyph glyph-name="Uhorn" unicode="&#x1af;" horiz-adv-x="606" 
d="M303 -6q-71 0 -128 23t-90.5 75t-33.5 138v454q0 25 24 36t54 11q29 0 53.5 -11t24.5 -36v-454q0 -51 25.5 -75.5t70.5 -24.5t70.5 24.5t25.5 75.5v454q0 25 24 36t54 11q29 0 53.5 -11t24.5 -36v-454q0 -86 -33.5 -138t-90.5 -75t-128 -23zM476 632v100q39 0 62 15
t23 47q0 18 13 35.5t38 17.5q28 0 38.5 -18.5t10.5 -34.5q0 -43 -19 -80t-59.5 -59.5t-106.5 -22.5z" />
    <glyph glyph-name="uhorn" unicode="&#x1b0;" horiz-adv-x="535" 
d="M268 -10q-62 0 -114 29.5t-83 77.5t-31 103v228q0 18 23 33t55 15q31 0 54 -15t23 -33v-228q0 -19 10 -36t26.5 -28t36.5 -11t36.5 11t26 28t9.5 36v229q0 19 23.5 33t54.5 14q34 0 55.5 -14t21.5 -33v-229q0 -56 -31 -104t-82.5 -77t-113.5 -29zM417 377v100q39 0 62 15
t23 47q0 18 13 35.5t38 17.5q28 0 38.5 -18.5t10.5 -34.5q0 -43 -19 -80t-59.5 -59.5t-106.5 -22.5z" />
    <glyph glyph-name="AEacute" unicode="&#x1fc;" horiz-adv-x="817" 
d="M119 0q-37 0 -52.5 15.5t-15.5 37.5v442q0 86 31.5 138t85 75t119.5 23h469q25 0 36 -21.5t11 -45.5q0 -28 -12 -48.5t-35 -20.5h-226v-169h108q23 0 35 -18.5t12 -42.5q0 -20 -11 -39.5t-36 -19.5h-108v-170h226q23 0 35 -20.5t12 -48.5q0 -24 -11 -45.5t-36 -21.5h-314
q-25 0 -46.5 12t-21.5 36v258h-177v-253q0 -22 -13 -37.5t-65 -15.5zM197 426h177v169h-87q-42 0 -66 -24.5t-24 -75.5v-69zM436 798q-19 0 -32.5 19.5t-13.5 38.5q0 25 20 35l140 65q8 3 14 3q20 0 33.5 -19t13.5 -39q0 -24 -20 -34l-140 -65q-4 -1 -7.5 -2.5t-7.5 -1.5z
" />
    <glyph glyph-name="aeacute" unicode="&#x1fd;" horiz-adv-x="756" 
d="M175 -10q-42 0 -78 14.5t-58 44t-22 74.5q0 59 30 92t82.5 46t121.5 13h36v10q0 17 -7 34t-23 28.5t-45 11.5q-41 0 -61 -8t-31 -16.5t-25 -8.5q-25 0 -38.5 25t-13.5 52q0 24 27.5 42t67 28t76.5 10q54 0 93 -19.5t65 -52.5q29 33 66 52.5t79 19.5q43 0 82 -13.5t69 -39
t47 -60.5t17 -77q0 -45 -14.5 -64.5t-37 -24t-45.5 -4.5h-193v-6q0 -37 28 -59.5t74 -22.5q31 0 53 9.5t39 18.5t33 9q18 0 30.5 -12t19.5 -28t7 -28q0 -19 -23 -40t-64.5 -35.5t-98.5 -14.5q-59 0 -107.5 25t-81.5 69q-36 -41 -82.5 -67.5t-93.5 -26.5zM212 103
q16 0 33 12.5t29.5 33.5t12.5 46v4h-4q-28 0 -53.5 -3.5t-41 -15t-15.5 -35.5q0 -22 11 -32t28 -10zM442 286h124q11 0 16 5t5 19q0 20 -10.5 33.5t-27 20t-35.5 6.5q-18 0 -34.5 -6.5t-27 -20t-10.5 -33.5v-24zM325 557q-19 0 -32.5 19.5t-13.5 38.5q0 25 20 35l140 65
q8 3 14 3q20 0 33.5 -19t13.5 -39q0 -24 -20 -34l-140 -65q-4 -1 -7.5 -2.5t-7.5 -1.5z" />
    <glyph glyph-name="Oslashacute" unicode="&#x1fe;" horiz-adv-x="583" 
d="M291 -6q-69 0 -124.5 23t-88 75t-32.5 138v265q0 86 32.5 138t88 75t124.5 23t125 -23t88.5 -75t32.5 -138v-265q0 -86 -32.5 -138t-88.5 -75t-125 -23zM291 130q42 0 66 24t24 76v265q0 52 -24 76t-66 24t-65.5 -24t-23.5 -76v-265q0 -52 23.5 -76t65.5 -24zM130 -52
q-25 0 -40.5 17t-15.5 36q0 9 5 19l351 721q12 25 42 25q21 0 40 -14.5t19 -38.5q0 -11 -4 -19l-352 -721q-5 -11 -18 -18t-27 -7zM262 798q-19 0 -32.5 19.5t-13.5 38.5q0 25 20 35l140 65q8 3 14 3q20 0 33.5 -19t13.5 -39q0 -24 -20 -34l-140 -65q-4 -1 -7.5 -2.5
t-7.5 -1.5z" />
    <glyph glyph-name="oslashacute" unicode="&#x1ff;" horiz-adv-x="509" 
d="M254 -10q-61 0 -112.5 29.5t-83 78t-31.5 104.5v70q0 56 30.5 104t82.5 77t114 29q61 0 113 -28.5t83.5 -76t31.5 -105.5v-70q0 -55 -31.5 -103.5t-83.5 -78.5t-113 -30zM254 125q20 0 36.5 11t26.5 28.5t10 37.5v70q0 19 -10 36t-26.5 28t-36.5 11t-36.5 -11t-26 -28
t-9.5 -36v-70q0 -20 9.5 -37.5t26 -28.5t36.5 -11zM72 -32q-11 0 -21 9t-10 21q0 9 7 18l36 48l291 385l36 48q9 13 22 13q14 0 23.5 -9.5t9.5 -22.5q0 -10 -8 -21l-35 -46l-295 -384l-39 -51q-6 -8 -17 -8zM225 543q-19 0 -32.5 19.5t-13.5 38.5q0 25 20 35l140 65
q8 3 14 3q20 0 33.5 -19t13.5 -39q0 -24 -20 -34l-140 -65q-4 -1 -7.5 -2.5t-7.5 -1.5z" />
    <glyph glyph-name="uni0218" unicode="&#x218;" horiz-adv-x="533" 
d="M260 -10q-65 0 -120 19t-88 48.5t-33 62.5q0 17 9 36.5t24.5 33.5t34.5 14q18 0 33.5 -11t34 -26t43 -26t59.5 -11q23 0 45.5 6.5t37 21t14.5 38.5q0 26 -17 44.5t-45.5 33.5t-62 30.5t-67.5 34t-62.5 44t-45.5 61.5t-17 86q0 56 22 95.5t59 64t82.5 36t92.5 11.5
q20 0 53 -3t66.5 -12t56.5 -26.5t23 -46.5q0 -13 -6.5 -32.5t-20 -34.5t-35.5 -15q-18 0 -33.5 9.5t-39 19t-64.5 9.5q-35 0 -57.5 -8.5t-32.5 -22t-10 -29.5q0 -21 17 -36.5t45.5 -29t62 -28t67.5 -34t62.5 -46.5t45.5 -66t17 -93q0 -72 -32.5 -121.5t-88.5 -75t-129 -25.5
zM202 -209q-19 0 -32.5 19.5t-13.5 38.5q0 25 20 35l140 65q8 3 14 3q20 0 33.5 -19t13.5 -39q0 -24 -20 -34l-140 -65q-4 -1 -7.5 -2.5t-7.5 -1.5z" />
    <glyph glyph-name="uni0219" unicode="&#x219;" horiz-adv-x="429" 
d="M211 -10q-52 0 -95.5 13t-69 34t-25.5 45q0 12 6.5 28t18 28t26.5 12q16 0 32 -11.5t39.5 -22.5t63.5 -11t51 11.5t11 21.5q0 17 -17 26.5t-43.5 16t-56.5 15t-56.5 23.5t-43.5 41t-17 68q0 37 17.5 72.5t58.5 58.5t112 23q44 0 82.5 -9t63 -25.5t24.5 -37.5
q0 -10 -6.5 -27.5t-19 -31.5t-30.5 -14q-13 0 -29 7.5t-36 15t-47 7.5q-20 0 -32.5 -5t-18.5 -12t-6 -15q0 -14 17 -21.5t44 -14t57 -15t57 -25t44 -44t17 -71.5q0 -70 -49.5 -112t-143.5 -42zM150 -209q-19 0 -32.5 19.5t-13.5 38.5q0 25 20 35l140 65q8 3 14 3
q20 0 33.5 -19t13.5 -39q0 -24 -20 -34l-140 -65q-4 -1 -7.5 -2.5t-7.5 -1.5z" />
    <glyph glyph-name="uni0237" unicode="&#x237;" horiz-adv-x="245" 
d="M41 -217q-49 0 -65 20t-16 43q0 31 17 49t41 18q12 0 18 7.5t7.5 21t1.5 30.5v457q0 21 21.5 34t54.5 13t56 -13t23 -34v-457q0 -55 -18.5 -98t-54 -67t-86.5 -24z" />
    <glyph glyph-name="uni0259" unicode="&#x259;" horiz-adv-x="496" 
d="M239 -10q-57 0 -106 24t-79 67t-30 99q0 45 14.5 64.5t37 24t45.5 4.5h193v6q0 37 -28 59.5t-74 22.5q-31 0 -53 -9t-38.5 -18.5t-33.5 -9.5q-18 0 -30.5 12t-19.5 28t-7 28q0 19 23 40t65 35.5t98 14.5q74 0 131 -26.5t89.5 -74t32.5 -111.5v-73q0 -56 -31 -103
t-83 -75.5t-116 -28.5zM242 102q18 0 34.5 6.5t27 20t10.5 33.5v24h-124q-10 0 -15.5 -5t-5.5 -19q0 -20 10.5 -33.5t27.5 -20t35 -6.5z" />
    <glyph glyph-name="circumflex" unicode="&#x2c6;" horiz-adv-x="292" 
d="M31 569q-13 0 -22 14.5t-9 31.5q0 13 6 25t19 19l104 56q10 5 17 5t17 -5l104 -56q14 -7 19.5 -19t5.5 -25q0 -17 -8.5 -31.5t-22.5 -14.5q-2 0 -5 1l-6 2l-104 56l-104 -56l-6 -2t-5 -1z" />
    <glyph glyph-name="caron" unicode="&#x2c7;" horiz-adv-x="292" 
d="M146 581q-7 0 -17 5l-104 56q-13 8 -19 19.5t-6 24.5q0 17 9 31.5t22 14.5q5 0 11 -3l104 -56l104 56q6 3 11 3q14 0 22.5 -14.5t8.5 -31.5q0 -13 -5.5 -24.5t-19.5 -19.5l-104 -56q-10 -5 -17 -5z" />
    <glyph glyph-name="breve" unicode="&#x2d8;" horiz-adv-x="273" 
d="M137 585q-46 0 -85 31t-51 76q-4 15 4.5 23.5t23.5 8.5h20q14 0 21 -7t12 -20q7 -21 23 -33.5t32 -12.5q17 0 32 12.5t22 33.5q5 13 12.5 20t20.5 7h20q15 0 23.5 -8.5t4.5 -24.5q-13 -44 -51.5 -75t-83.5 -31z" />
    <glyph glyph-name="dotaccent" unicode="&#x2d9;" horiz-adv-x="193" 
d="M97 571q-23 0 -40 18t-17 41t17 40.5t40 17.5t39.5 -17.5t16.5 -40.5t-16.5 -41t-39.5 -18z" />
    <glyph glyph-name="uni030A" unicode="&#x2da;" 
d="M99 565q-26 0 -49 14.5t-36.5 38t-13.5 50.5q0 26 13.5 49t36 37.5t49.5 14.5t50 -14t37 -37t14 -50t-14 -50.5t-37 -38t-50 -14.5zM100 625q17 0 28 13t11 29q0 15 -11 27t-28 12t-29 -12.5t-12 -26.5q0 -15 12 -28.5t29 -13.5z" />
    <glyph glyph-name="ogonek" unicode="&#x2db;" horiz-adv-x="156" 
d="M125 -218q-44 0 -71.5 13t-40.5 35.5t-13 48.5q0 40 26.5 82t72.5 67l53 -19q-34 -19 -56.5 -53t-22.5 -63q0 -21 13.5 -34.5t44.5 -13.5q14 0 19.5 -11.5t5.5 -22.5t-5.5 -20t-25.5 -9z" />
    <glyph glyph-name="tilde" unicode="&#x2dc;" horiz-adv-x="355" 
d="M270 579q-35 0 -59 7t-43.5 13.5t-43.5 6.5q-21 0 -36 -5t-26.5 -10.5t-23.5 -5.5q-15 0 -23.5 10t-11.5 22t-3 17q0 27 10.5 41.5t25 21.5t28.5 8.5t21 1.5q31 0 53 -6.5t44 -13.5t49 -7q21 0 36 5.5t27 10.5t23 5q16 0 24 -10t11 -22t3 -17q0 -27 -10.5 -41.5
t-25 -21.5t-28.5 -8.5t-21 -1.5z" />
    <glyph glyph-name="uni030B" unicode="&#x2dd;" 
d="M206 556q-17 0 -31.5 14.5t-14.5 29.5q0 9 7 17l79 95q5 6 10.5 8t11.5 2q16 0 30 -14.5t14 -28.5q0 -9 -6 -17l-79 -95q-8 -11 -21 -11zM46 556q-17 0 -31.5 14.5t-14.5 29.5q0 9 7 17l79 95q5 6 10.5 8t11.5 2q16 0 30 -14.5t14 -28.5q0 -9 -6 -17l-79 -95
q-8 -11 -21 -11z" />
    <glyph glyph-name="gravecomb" unicode="&#x300;" 
d="M175 559q-4 0 -7.5 1.5t-7.5 2.5l-140 65q-20 10 -20 34q0 20 13.5 39t33.5 19q7 0 14 -3l140 -65q20 -10 20 -35q0 -19 -13 -38.5t-33 -19.5z" />
    <glyph glyph-name="acutecomb" unicode="&#x301;" 
d="M46 559q-19 0 -32.5 19.5t-13.5 38.5q0 25 20 35l140 65q8 3 14 3q20 0 33.5 -19t13.5 -39q0 -24 -20 -34l-140 -65q-4 -1 -7.5 -2.5t-7.5 -1.5z" />
    <glyph glyph-name="uni0302" unicode="&#x302;" 
d="M31 569q-13 0 -22 14.5t-9 31.5q0 13 6 25t19 19l104 56q10 5 17 5t17 -5l104 -56q14 -7 19.5 -19t5.5 -25q0 -17 -8.5 -31.5t-22.5 -14.5q-2 0 -5 1l-6 2l-104 56l-104 -56l-6 -2t-5 -1z" />
    <glyph glyph-name="tildecomb" unicode="&#x303;" 
d="M270 579q-35 0 -59 7t-43.5 13.5t-43.5 6.5q-21 0 -36 -5t-26.5 -10.5t-23.5 -5.5q-15 0 -23.5 10t-11.5 22t-3 17q0 27 10.5 41.5t25 21.5t28.5 8.5t21 1.5q31 0 53 -6.5t44 -13.5t49 -7q21 0 36 5.5t27 10.5t23 5q16 0 24 -10t11 -22t3 -17q0 -27 -10.5 -41.5
t-25 -21.5t-28.5 -8.5t-21 -1.5z" />
    <glyph glyph-name="uni0306" unicode="&#x306;" 
d="M140 585q-46 0 -85 31t-51 76q-4 15 4.5 23.5t23.5 8.5h20q14 0 21 -7t12 -20q7 -21 23 -33.5t32 -12.5q17 0 32 12.5t22 33.5q5 13 12.5 20t20.5 7h20q15 0 23.5 -8.5t4.5 -24.5q-13 -44 -51.5 -75t-83.5 -31z" />
    <glyph glyph-name="uni0307" unicode="&#x307;" 
d="M97 571q-23 0 -40 18t-17 41t17 40.5t40 17.5t39.5 -17.5t16.5 -40.5t-16.5 -41t-39.5 -18z" />
    <glyph glyph-name="uni0308" unicode="&#x308;" 
d="M217 571q-23 0 -40 18t-17 41t17 40.5t40 17.5t39.5 -17.5t16.5 -40.5t-16.5 -41t-39.5 -18zM57 571q-23 0 -40 18t-17 41t17 40.5t40 17.5t39.5 -17.5t16.5 -40.5t-16.5 -41t-39.5 -18z" />
    <glyph glyph-name="hookabovecomb" unicode="&#x309;" 
d="M108 698q14 12 30.5 19.5t41.5 7.5q38 0 58 -13t27.5 -31.5t7.5 -35.5q0 -14 -3.5 -26t-13.5 -23q-9 -10 -15.5 -18.5t-6.5 -15.5q0 -11 -9 -18.5t-22 -7.5q-12 0 -21.5 7t-9.5 19q0 9 4.5 17.5t10.5 17.5q8 11 14.5 21.5t6.5 17.5q0 12 -9.5 18.5t-21.5 6.5t-21 -5
t-17 -11q-7 -4 -16.5 -4.5t-21.5 11.5t-7 25.5t14 20.5z" />
    <glyph glyph-name="uni030C" unicode="&#x30c;" 
d="M146 581q-7 0 -17 5l-104 56q-13 8 -19 19.5t-6 24.5q0 17 9 31.5t22 14.5q5 0 11 -3l104 -56l104 56q6 3 11 3q14 0 22.5 -14.5t8.5 -31.5q0 -13 -5.5 -24.5t-19.5 -19.5l-104 -56q-10 -5 -17 -5z" />
    <glyph glyph-name="uni0312" unicode="&#x312;" 
d="M193 559q-19 0 -32.5 19.5t-13.5 38.5q0 25 20 35l140 65q8 3 14 3q20 0 33.5 -19t13.5 -39q0 -24 -20 -34l-140 -65q-4 -1 -7.5 -2.5t-7.5 -1.5z" />
    <glyph glyph-name="uni031B" unicode="&#x31b;" 
d="M100 377v100q39 0 62 15t23 47q0 18 13 35.5t38 17.5q28 0 38.5 -18.5t10.5 -34.5q0 -43 -19 -80t-59.5 -59.5t-106.5 -22.5z" />
    <glyph glyph-name="dotbelowcomb" unicode="&#x323;" 
d="M100 -132q-33 0 -55 23t-22 54q0 32 22 54.5t55 22.5q31 0 53.5 -22.5t22.5 -54.5q0 -31 -22.5 -54t-53.5 -23z" />
    <glyph glyph-name="uni0326" unicode="&#x326;" 
d="M60 -209q-19 0 -32.5 19.5t-13.5 38.5q0 25 20 35l140 65q8 3 14 3q20 0 33.5 -19t13.5 -39q0 -24 -20 -34l-140 -65q-4 -1 -7.5 -2.5t-7.5 -1.5z" />
    <glyph glyph-name="uni0327" unicode="&#x327;" 
d="M88 -219q-18 0 -38.5 3.5t-35 10.5t-14.5 17q0 4 2.5 14t8.5 19t15 9t21.5 -7t36.5 -7q20 0 33 7.5t13 23.5q0 13 -10 22.5t-33 11.5l-62 6l29 98h64l-19 -56q51 -2 75.5 -24.5t24.5 -54.5q0 -17 -9.5 -39t-33.5 -38t-68 -16z" />
    <glyph glyph-name="uni0328" unicode="&#x328;" 
d="M125 -218q-44 0 -71.5 13t-40.5 35.5t-13 48.5q0 40 26.5 82t72.5 67l53 -19q-34 -19 -56.5 -53t-22.5 -63q0 -21 13.5 -34.5t44.5 -13.5q14 0 19.5 -11.5t5.5 -22.5t-5.5 -20t-25.5 -9z" />
    <glyph glyph-name="uni0335" unicode="&#x335;" 
d="M78 177q-21 0 -34 17.5t-13 45.5q0 27 13 45.5t34 18.5h260q18 0 33 -18.5t15 -45.5q0 -28 -15 -45.5t-33 -17.5h-260z" />
    <glyph glyph-name="pi" unicode="&#x3c0;" horiz-adv-x="561" 
d="M123 0q-29 0 -53.5 11t-24.5 36v381q0 24 21.5 36t46.5 12h335q26 0 47 -12t21 -36v-381q0 -25 -24.5 -36t-53.5 -11t-53.5 11t-24.5 36v293h-159v-293q0 -25 -24.5 -36t-53.5 -11z" />
    <glyph glyph-name="Wgrave" unicode="&#x1e80;" horiz-adv-x="920" 
d="M307 -6q-34 0 -64.5 13t-38.5 39l-199 610q-2 6 -2 13q0 17 16 31t39.5 22.5t45.5 8.5q18 0 32 -6.5t18 -22.5l152 -513l79 338q5 20 27.5 30.5t47.5 10.5q26 0 48.5 -10.5t26.5 -30.5l79 -338l152 513q5 16 18.5 22.5t31.5 6.5q23 0 46 -8.5t39 -22.5t16 -31
q0 -7 -2 -13l-199 -610q-9 -26 -38.5 -39t-64.5 -13q-34 0 -64.5 13t-36.5 39l-52 237l-52 -237q-6 -26 -36.5 -39t-64.5 -13zM498 797q-4 0 -7.5 1.5t-7.5 2.5l-140 65q-20 10 -20 34q0 20 13.5 39t33.5 19q7 0 14 -3l140 -65q20 -10 20 -35q0 -19 -13 -38.5t-33 -19.5z
" />
    <glyph glyph-name="wgrave" unicode="&#x1e81;" horiz-adv-x="702" 
d="M220 -13q-19 0 -36 6t-23 21l-154 385q-3 8 -4 12.5t-1 8.5q0 18 17 32t41 22t44 8q15 0 27 -5.5t16 -18.5l89 -254l64 215q6 20 20 25t31 5t31 -5t20 -25l64 -215l89 254q8 24 42 24q19 0 43 -8t41.5 -22.5t17.5 -33.5q0 -4 -1 -9t-3 -10l-154 -385q-6 -15 -23 -21
t-37 -6q-22 0 -40.5 7t-23.5 20l-66 174l-66 -174q-4 -13 -23 -20t-42 -7zM389 542q-4 0 -7.5 1.5t-7.5 2.5l-140 65q-20 10 -20 34q0 20 13.5 39t33.5 19q7 0 14 -3l140 -65q20 -10 20 -35q0 -19 -13 -38.5t-33 -19.5z" />
    <glyph glyph-name="Wacute" unicode="&#x1e82;" horiz-adv-x="920" 
d="M307 -6q-34 0 -64.5 13t-38.5 39l-199 610q-2 6 -2 13q0 17 16 31t39.5 22.5t45.5 8.5q18 0 32 -6.5t18 -22.5l152 -513l79 338q5 20 27.5 30.5t47.5 10.5q26 0 48.5 -10.5t26.5 -30.5l79 -338l152 513q5 16 18.5 22.5t31.5 6.5q23 0 46 -8.5t39 -22.5t16 -31
q0 -7 -2 -13l-199 -610q-9 -26 -38.5 -39t-64.5 -13q-34 0 -64.5 13t-36.5 39l-52 237l-52 -237q-6 -26 -36.5 -39t-64.5 -13zM430 798q-19 0 -32.5 19.5t-13.5 38.5q0 25 20 35l140 65q8 3 14 3q20 0 33.5 -19t13.5 -39q0 -24 -20 -34l-140 -65q-4 -1 -7.5 -2.5t-7.5 -1.5z
" />
    <glyph glyph-name="wacute" unicode="&#x1e83;" horiz-adv-x="702" 
d="M220 -13q-19 0 -36 6t-23 21l-154 385q-3 8 -4 12.5t-1 8.5q0 18 17 32t41 22t44 8q15 0 27 -5.5t16 -18.5l89 -254l64 215q6 20 20 25t31 5t31 -5t20 -25l64 -215l89 254q8 24 42 24q19 0 43 -8t41.5 -22.5t17.5 -33.5q0 -4 -1 -9t-3 -10l-154 -385q-6 -15 -23 -21
t-37 -6q-22 0 -40.5 7t-23.5 20l-66 174l-66 -174q-4 -13 -23 -20t-42 -7zM321 543q-19 0 -32.5 19.5t-13.5 38.5q0 25 20 35l140 65q8 3 14 3q20 0 33.5 -19t13.5 -39q0 -24 -20 -34l-140 -65q-4 -1 -7.5 -2.5t-7.5 -1.5z" />
    <glyph glyph-name="Wdieresis" unicode="&#x1e84;" horiz-adv-x="920" 
d="M307 -6q-34 0 -64.5 13t-38.5 39l-199 610q-2 6 -2 13q0 17 16 31t39.5 22.5t45.5 8.5q18 0 32 -6.5t18 -22.5l152 -513l79 338q5 20 27.5 30.5t47.5 10.5q26 0 48.5 -10.5t26.5 -30.5l79 -338l152 513q5 16 18.5 22.5t31.5 6.5q23 0 46 -8.5t39 -22.5t16 -31
q0 -7 -2 -13l-199 -610q-9 -26 -38.5 -39t-64.5 -13q-34 0 -64.5 13t-36.5 39l-52 237l-52 -237q-6 -26 -36.5 -39t-64.5 -13zM539 809q-23 0 -40 18t-17 41t17 40.5t40 17.5t39.5 -17.5t16.5 -40.5t-16.5 -41t-39.5 -18zM379 809q-23 0 -40 18t-17 41t17 40.5t40 17.5
t39.5 -17.5t16.5 -40.5t-16.5 -41t-39.5 -18z" />
    <glyph glyph-name="wdieresis" unicode="&#x1e85;" horiz-adv-x="702" 
d="M220 -13q-19 0 -36 6t-23 21l-154 385q-3 8 -4 12.5t-1 8.5q0 18 17 32t41 22t44 8q15 0 27 -5.5t16 -18.5l89 -254l64 215q6 20 20 25t31 5t31 -5t20 -25l64 -215l89 254q8 24 42 24q19 0 43 -8t41.5 -22.5t17.5 -33.5q0 -4 -1 -9t-3 -10l-154 -385q-6 -15 -23 -21
t-37 -6q-22 0 -40.5 7t-23.5 20l-66 174l-66 -174q-4 -13 -23 -20t-42 -7zM430 554q-23 0 -40 18t-17 41t17 40.5t40 17.5t39.5 -17.5t16.5 -40.5t-16.5 -41t-39.5 -18zM270 554q-23 0 -40 18t-17 41t17 40.5t40 17.5t39.5 -17.5t16.5 -40.5t-16.5 -41t-39.5 -18z" />
    <glyph glyph-name="uni1EA0" unicode="&#x1ea0;" horiz-adv-x="521" 
d="M104 0q-21 0 -44.5 8.5t-39.5 23t-16 32.5q0 3 2 11l186 610q8 26 38 39t64 13q35 0 64.5 -13t37.5 -39l187 -610q2 -8 2 -11q0 -18 -16 -32.5t-39 -23t-45 -8.5q-19 0 -32.5 6.5t-18.5 22.5l-34 125h-211l-34 -125q-4 -16 -18 -22.5t-33 -6.5zM221 274h146l-73 268z
M280 -132q-33 0 -55 23t-22 54q0 32 22 54.5t55 22.5q31 0 53.5 -22.5t22.5 -54.5q0 -31 -22.5 -54t-53.5 -23z" />
    <glyph glyph-name="uni1EA1" unicode="&#x1ea1;" horiz-adv-x="423" 
d="M146 -10q-52 0 -90 32.5t-38 100.5q0 59 30 92t82.5 46t121.5 13h36v10q0 17 -7 34t-23 28.5t-45 11.5q-41 0 -61 -8t-31 -16.5t-25 -8.5q-25 0 -38.5 25t-13.5 52q0 24 27.5 42t67 28t76.5 10q82 0 132 -28t73 -72.5t23 -95.5v-238q0 -20 -21.5 -34t-54.5 -14
q-29 0 -49 14t-20 34v22q-27 -31 -63 -55.5t-89 -24.5zM213 103q16 0 33 12.5t29.5 33.5t12.5 46v4h-4q-28 0 -53.5 -3.5t-41 -15t-15.5 -35.5q0 -22 11 -32t28 -10zM231 -132q-33 0 -55 23t-22 54q0 32 22 54.5t55 22.5q31 0 53.5 -22.5t22.5 -54.5q0 -31 -22.5 -54
t-53.5 -23z" />
    <glyph glyph-name="uni1EA2" unicode="&#x1ea2;" horiz-adv-x="589" 
d="M104 0q-21 0 -44.5 8.5t-39.5 23t-16 32.5q0 3 2 11l186 610q8 26 38 39t64 13q35 0 64.5 -13t37.5 -39l187 -610q2 -8 2 -11q0 -18 -16 -32.5t-39 -23t-45 -8.5q-19 0 -32.5 6.5t-18.5 22.5l-34 125h-211l-34 -125q-4 -16 -18 -22.5t-33 -6.5zM221 274h146l-73 268z
M204 953q14 12 30.5 19.5t41.5 7.5q38 0 58 -13t27.5 -31.5t7.5 -35.5q0 -14 -3.5 -26t-13.5 -23q-9 -10 -15.5 -18.5t-6.5 -15.5q0 -11 -9 -18.5t-22 -7.5q-12 0 -21.5 7t-9.5 19q0 9 4.5 17.5t10.5 17.5q8 11 14.5 21.5t6.5 17.5q0 12 -9.5 18.5t-21.5 6.5t-21 -5t-17 -11
q-7 -4 -16.5 -4.5t-21.5 11.5t-7 25.5t14 20.5z" />
    <glyph glyph-name="uni1EA3" unicode="&#x1ea3;" horiz-adv-x="484" 
d="M146 -10q-52 0 -90 32.5t-38 100.5q0 59 30 92t82.5 46t121.5 13h36v10q0 17 -7 34t-23 28.5t-45 11.5q-41 0 -61 -8t-31 -16.5t-25 -8.5q-25 0 -38.5 25t-13.5 52q0 24 27.5 42t67 28t76.5 10q82 0 132 -28t73 -72.5t23 -95.5v-238q0 -20 -21.5 -34t-54.5 -14
q-29 0 -49 14t-20 34v22q-27 -31 -63 -55.5t-89 -24.5zM213 103q16 0 33 12.5t29.5 33.5t12.5 46v4h-4q-28 0 -53.5 -3.5t-41 -15t-15.5 -35.5q0 -22 11 -32t28 -10zM132 709q14 12 30.5 19.5t41.5 7.5q38 0 58 -13t27.5 -31.5t7.5 -35.5q0 -14 -3.5 -26t-13.5 -23
q-9 -10 -15.5 -18.5t-6.5 -15.5q0 -11 -9 -18.5t-22 -7.5q-12 0 -21.5 7t-9.5 19q0 9 4.5 17.5t10.5 17.5q8 11 14.5 21.5t6.5 17.5q0 12 -9.5 18.5t-21.5 6.5t-21 -5t-17 -11q-7 -4 -16.5 -4.5t-21.5 11.5t-7 25.5t14 20.5z" />
    <glyph glyph-name="uni1EA4" unicode="&#x1ea4;" horiz-adv-x="521" 
d="M104 0q-21 0 -44.5 8.5t-39.5 23t-16 32.5q0 3 2 11l186 610q8 26 38 39t64 13q35 0 64.5 -13t37.5 -39l187 -610q2 -8 2 -11q0 -18 -16 -32.5t-39 -23t-45 -8.5q-19 0 -32.5 6.5t-18.5 22.5l-34 125h-211l-34 -125q-4 -16 -18 -22.5t-33 -6.5zM221 274h146l-73 268z
M182 781q-13 0 -22 14.5t-9 31.5q0 27 25 44l84 56q8 5 17 5q10 0 17 -5l84 -56q25 -17 25 -44q0 -17 -8.5 -31.5t-22.5 -14.5q-2 0 -5 1l-6 2l-84 56l-84 -56l-6 -2t-5 -1zM244 880q-19 0 -32.5 19.5t-13.5 38.5q0 25 20 35l140 65q8 3 14 3q20 0 33.5 -19t13.5 -39
q0 -24 -20 -34l-140 -65q-4 -1 -7.5 -2.5t-7.5 -1.5z" />
    <glyph glyph-name="uni1EA5" unicode="&#x1ea5;" horiz-adv-x="423" 
d="M146 -10q-52 0 -90 32.5t-38 100.5q0 59 30 92t82.5 46t121.5 13h36v10q0 17 -7 34t-23 28.5t-45 11.5q-41 0 -61 -8t-31 -16.5t-25 -8.5q-25 0 -38.5 25t-13.5 52q0 24 27.5 42t67 28t76.5 10q82 0 132 -28t73 -72.5t23 -95.5v-238q0 -20 -21.5 -34t-54.5 -14
q-29 0 -49 14t-20 34v22q-27 -31 -63 -55.5t-89 -24.5zM213 103q16 0 33 12.5t29.5 33.5t12.5 46v4h-4q-28 0 -53.5 -3.5t-41 -15t-15.5 -35.5q0 -22 11 -32t28 -10zM133 522q-13 0 -22 14.5t-9 31.5q0 27 25 44l84 56q8 5 17 5q10 0 17 -5l84 -56q25 -17 25 -44
q0 -17 -8.5 -31.5t-22.5 -14.5q-2 0 -5 1l-6 2l-84 56l-84 -56l-6 -2t-5 -1zM195 621q-19 0 -32.5 19.5t-13.5 38.5q0 25 20 35l140 65q8 3 14 3q20 0 33.5 -19t13.5 -39q0 -24 -20 -34l-140 -65q-4 -1 -7.5 -2.5t-7.5 -1.5z" />
    <glyph glyph-name="uni1EA6" unicode="&#x1ea6;" horiz-adv-x="521" 
d="M104 0q-21 0 -44.5 8.5t-39.5 23t-16 32.5q0 3 2 11l186 610q8 26 38 39t64 13q35 0 64.5 -13t37.5 -39l187 -610q2 -8 2 -11q0 -18 -16 -32.5t-39 -23t-45 -8.5q-19 0 -32.5 6.5t-18.5 22.5l-34 125h-211l-34 -125q-4 -16 -18 -22.5t-33 -6.5zM221 274h146l-73 268z
M182 783q-13 0 -22 14.5t-9 31.5q0 27 25 44l84 56q8 5 17 5q10 0 17 -5l84 -56q25 -17 25 -44q0 -17 -8.5 -31.5t-22.5 -14.5q-2 0 -5 1l-6 2l-84 56l-84 -56l-6 -2t-5 -1zM380 878q-4 0 -7.5 1.5t-7.5 2.5l-140 65q-20 10 -20 34q0 20 13.5 39t33.5 19q7 0 14 -3l140 -65
q20 -10 20 -35q0 -19 -13 -38.5t-33 -19.5z" />
    <glyph glyph-name="uni1EA7" unicode="&#x1ea7;" horiz-adv-x="423" 
d="M146 -10q-52 0 -90 32.5t-38 100.5q0 59 30 92t82.5 46t121.5 13h36v10q0 17 -7 34t-23 28.5t-45 11.5q-41 0 -61 -8t-31 -16.5t-25 -8.5q-25 0 -38.5 25t-13.5 52q0 24 27.5 42t67 28t76.5 10q82 0 132 -28t73 -72.5t23 -95.5v-238q0 -20 -21.5 -34t-54.5 -14
q-29 0 -49 14t-20 34v22q-27 -31 -63 -55.5t-89 -24.5zM213 103q16 0 33 12.5t29.5 33.5t12.5 46v4h-4q-28 0 -53.5 -3.5t-41 -15t-15.5 -35.5q0 -22 11 -32t28 -10zM133 524q-13 0 -22 14.5t-9 31.5q0 27 25 44l84 56q8 5 17 5q10 0 17 -5l84 -56q25 -17 25 -44
q0 -17 -8.5 -31.5t-22.5 -14.5q-2 0 -5 1l-6 2l-84 56l-84 -56l-6 -2t-5 -1zM331 619q-4 0 -7.5 1.5t-7.5 2.5l-140 65q-20 10 -20 34q0 20 13.5 39t33.5 19q7 0 14 -3l140 -65q20 -10 20 -35q0 -19 -13 -38.5t-33 -19.5z" />
    <glyph glyph-name="uni1EA8" unicode="&#x1ea8;" horiz-adv-x="589" 
d="M104 0q-21 0 -44.5 8.5t-39.5 23t-16 32.5q0 3 2 11l186 610q8 26 38 39t64 13q35 0 64.5 -13t37.5 -39l187 -610q2 -8 2 -11q0 -18 -16 -32.5t-39 -23t-45 -8.5q-19 0 -32.5 6.5t-18.5 22.5l-34 125h-211l-34 -125q-4 -16 -18 -22.5t-33 -6.5zM221 274h146l-73 268z
M200 793q-13 0 -22 14.5t-9 31.5q0 27 25 44l84 56q8 5 17 5q10 0 17 -5l84 -56q25 -17 25 -44q0 -17 -8.5 -31.5t-22.5 -14.5q-2 0 -5 1l-6 2l-84 56l-84 -56l-6 -2t-5 -1zM341 1065q14 12 30.5 19.5t41.5 7.5q38 0 58 -13t27.5 -31.5t7.5 -35.5q0 -14 -3.5 -26t-13.5 -23
q-9 -10 -15.5 -18.5t-6.5 -15.5q0 -11 -9 -18.5t-22 -7.5q-12 0 -21.5 7t-9.5 19q0 9 4.5 17.5t10.5 17.5q8 11 14.5 21.5t6.5 17.5q0 12 -9.5 18.5t-21.5 6.5t-21 -5t-17 -11q-7 -4 -16.5 -4.5t-21.5 11.5t-7 25.5t14 20.5z" />
    <glyph glyph-name="uni1EA9" unicode="&#x1ea9;" horiz-adv-x="484" 
d="M146 -10q-52 0 -90 32.5t-38 100.5q0 59 30 92t82.5 46t121.5 13h36v10q0 17 -7 34t-23 28.5t-45 11.5q-41 0 -61 -8t-31 -16.5t-25 -8.5q-25 0 -38.5 25t-13.5 52q0 24 27.5 42t67 28t76.5 10q82 0 132 -28t73 -72.5t23 -95.5v-238q0 -20 -21.5 -34t-54.5 -14
q-29 0 -49 14t-20 34v22q-27 -31 -63 -55.5t-89 -24.5zM213 103q16 0 33 12.5t29.5 33.5t12.5 46v4h-4q-28 0 -53.5 -3.5t-41 -15t-15.5 -35.5q0 -22 11 -32t28 -10zM128 549q-13 0 -22 14.5t-9 31.5q0 27 25 44l84 56q8 5 17 5q10 0 17 -5l84 -56q25 -17 25 -44
q0 -17 -8.5 -31.5t-22.5 -14.5q-2 0 -5 1l-6 2l-84 56l-84 -56l-6 -2t-5 -1zM269 821q14 12 30.5 19.5t41.5 7.5q38 0 58 -13t27.5 -31.5t7.5 -35.5q0 -14 -3.5 -26t-13.5 -23q-9 -10 -15.5 -18.5t-6.5 -15.5q0 -11 -9 -18.5t-22 -7.5q-12 0 -21.5 7t-9.5 19q0 9 4.5 17.5
t10.5 17.5q8 11 14.5 21.5t6.5 17.5q0 12 -9.5 18.5t-21.5 6.5t-21 -5t-17 -11q-7 -4 -16.5 -4.5t-21.5 11.5t-7 25.5t14 20.5z" />
    <glyph glyph-name="uni1EAA" unicode="&#x1eaa;" horiz-adv-x="521" 
d="M104 0q-21 0 -44.5 8.5t-39.5 23t-16 32.5q0 3 2 11l186 610q8 26 38 39t64 13q35 0 64.5 -13t37.5 -39l187 -610q2 -8 2 -11q0 -18 -16 -32.5t-39 -23t-45 -8.5q-19 0 -32.5 6.5t-18.5 22.5l-34 125h-211l-34 -125q-4 -16 -18 -22.5t-33 -6.5zM221 274h146l-73 268z
M182 781q-13 0 -22 14.5t-9 31.5q0 27 25 44l84 56q8 5 17 5q10 0 17 -5l84 -56q25 -17 25 -44q0 -17 -8.5 -31.5t-22.5 -14.5q-2 0 -5 1l-6 2l-84 56l-84 -56l-6 -2t-5 -1zM383 875q-35 0 -59 7t-43.5 13.5t-43.5 6.5q-21 0 -36 -5t-26.5 -10.5t-23.5 -5.5q-15 0 -23.5 10
t-11.5 22t-3 17q0 27 10.5 41.5t25 21.5t28.5 8.5t21 1.5q31 0 53 -6.5t44 -13.5t49 -7q21 0 36 5.5t27 10.5t23 5q16 0 24 -10t11 -22t3 -17q0 -27 -10.5 -41.5t-25 -21.5t-28.5 -8.5t-21 -1.5z" />
    <glyph glyph-name="uni1EAB" unicode="&#x1eab;" horiz-adv-x="423" 
d="M146 -10q-52 0 -90 32.5t-38 100.5q0 59 30 92t82.5 46t121.5 13h36v10q0 17 -7 34t-23 28.5t-45 11.5q-41 0 -61 -8t-31 -16.5t-25 -8.5q-25 0 -38.5 25t-13.5 52q0 24 27.5 42t67 28t76.5 10q82 0 132 -28t73 -72.5t23 -95.5v-238q0 -20 -21.5 -34t-54.5 -14
q-29 0 -49 14t-20 34v22q-27 -31 -63 -55.5t-89 -24.5zM213 103q16 0 33 12.5t29.5 33.5t12.5 46v4h-4q-28 0 -53.5 -3.5t-41 -15t-15.5 -35.5q0 -22 11 -32t28 -10zM133 522q-13 0 -22 14.5t-9 31.5q0 27 25 44l84 56q8 5 17 5q10 0 17 -5l84 -56q25 -17 25 -44
q0 -17 -8.5 -31.5t-22.5 -14.5q-2 0 -5 1l-6 2l-84 56l-84 -56l-6 -2t-5 -1zM334 616q-35 0 -59 7t-43.5 13.5t-43.5 6.5q-21 0 -36 -5t-26.5 -10.5t-23.5 -5.5q-15 0 -23.5 10t-11.5 22t-3 17q0 27 10.5 41.5t25 21.5t28.5 8.5t21 1.5q31 0 53 -6.5t44 -13.5t49 -7
q21 0 36 5.5t27 10.5t23 5q16 0 24 -10t11 -22t3 -17q0 -27 -10.5 -41.5t-25 -21.5t-28.5 -8.5t-21 -1.5z" />
    <glyph glyph-name="uni1EAC" unicode="&#x1eac;" horiz-adv-x="521" 
d="M104 0q-21 0 -44.5 8.5t-39.5 23t-16 32.5q0 3 2 11l186 610q8 26 38 39t64 13q35 0 64.5 -13t37.5 -39l187 -610q2 -8 2 -11q0 -18 -16 -32.5t-39 -23t-45 -8.5q-19 0 -32.5 6.5t-18.5 22.5l-34 125h-211l-34 -125q-4 -16 -18 -22.5t-33 -6.5zM221 274h146l-73 268z
M280 -132q-33 0 -55 23t-22 54q0 32 22 54.5t55 22.5q31 0 53.5 -22.5t22.5 -54.5q0 -31 -22.5 -54t-53.5 -23zM162 828q-13 0 -22 14.5t-9 31.5q0 13 6 25t19 19l104 56q10 5 17 5t17 -5l104 -56q14 -7 19.5 -19t5.5 -25q0 -17 -8.5 -31.5t-22.5 -14.5q-2 0 -5 1l-6 2
l-104 56l-104 -56l-6 -2t-5 -1z" />
    <glyph glyph-name="uni1EAD" unicode="&#x1ead;" horiz-adv-x="423" 
d="M146 -10q-52 0 -90 32.5t-38 100.5q0 59 30 92t82.5 46t121.5 13h36v10q0 17 -7 34t-23 28.5t-45 11.5q-41 0 -61 -8t-31 -16.5t-25 -8.5q-25 0 -38.5 25t-13.5 52q0 24 27.5 42t67 28t76.5 10q82 0 132 -28t73 -72.5t23 -95.5v-238q0 -20 -21.5 -34t-54.5 -14
q-29 0 -49 14t-20 34v22q-27 -31 -63 -55.5t-89 -24.5zM213 103q16 0 33 12.5t29.5 33.5t12.5 46v4h-4q-28 0 -53.5 -3.5t-41 -15t-15.5 -35.5q0 -22 11 -32t28 -10zM231 -132q-33 0 -55 23t-22 54q0 32 22 54.5t55 22.5q31 0 53.5 -22.5t22.5 -54.5q0 -31 -22.5 -54
t-53.5 -23zM113 569q-13 0 -22 14.5t-9 31.5q0 13 6 25t19 19l104 56q10 5 17 5t17 -5l104 -56q14 -7 19.5 -19t5.5 -25q0 -17 -8.5 -31.5t-22.5 -14.5q-2 0 -5 1l-6 2l-104 56l-104 -56l-6 -2t-5 -1z" />
    <glyph glyph-name="uni1EAE" unicode="&#x1eae;" horiz-adv-x="589" 
d="M104 0q-21 0 -44.5 8.5t-39.5 23t-16 32.5q0 3 2 11l186 610q8 26 38 39t64 13q35 0 64.5 -13t37.5 -39l187 -610q2 -8 2 -11q0 -18 -16 -32.5t-39 -23t-45 -8.5q-19 0 -32.5 6.5t-18.5 22.5l-34 125h-211l-34 -125q-4 -16 -18 -22.5t-33 -6.5zM221 274h146l-73 268z
M294 793q-46 0 -85 31t-51 76q-4 15 4.5 23.5t23.5 8.5h20q14 0 21 -7t12 -20q7 -21 23 -33.5t32 -12.5q17 0 32 12.5t22 33.5q5 13 12.5 20t20.5 7h20q15 0 23.5 -8.5t4.5 -24.5q-13 -44 -51.5 -75t-83.5 -31zM270 962q-19 0 -32.5 19.5t-13.5 38.5q0 25 20 35l140 65
q8 3 14 3q20 0 33.5 -19t13.5 -39q0 -24 -20 -34l-140 -65q-4 -1 -7.5 -2.5t-7.5 -1.5z" />
    <glyph glyph-name="uni1EAF" unicode="&#x1eaf;" horiz-adv-x="484" 
d="M146 -10q-52 0 -90 32.5t-38 100.5q0 59 30 92t82.5 46t121.5 13h36v10q0 17 -7 34t-23 28.5t-45 11.5q-41 0 -61 -8t-31 -16.5t-25 -8.5q-25 0 -38.5 25t-13.5 52q0 24 27.5 42t67 28t76.5 10q82 0 132 -28t73 -72.5t23 -95.5v-238q0 -20 -21.5 -34t-54.5 -14
q-29 0 -49 14t-20 34v22q-27 -31 -63 -55.5t-89 -24.5zM213 103q16 0 33 12.5t29.5 33.5t12.5 46v4h-4q-28 0 -53.5 -3.5t-41 -15t-15.5 -35.5q0 -22 11 -32t28 -10zM222 549q-46 0 -85 31t-51 76q-4 15 4.5 23.5t23.5 8.5h20q14 0 21 -7t12 -20q7 -21 23 -33.5t32 -12.5
q17 0 32 12.5t22 33.5q5 13 12.5 20t20.5 7h20q15 0 23.5 -8.5t4.5 -24.5q-13 -44 -51.5 -75t-83.5 -31zM198 718q-19 0 -32.5 19.5t-13.5 38.5q0 25 20 35l140 65q8 3 14 3q20 0 33.5 -19t13.5 -39q0 -24 -20 -34l-140 -65q-4 -1 -7.5 -2.5t-7.5 -1.5z" />
    <glyph glyph-name="uni1EB0" unicode="&#x1eb0;" horiz-adv-x="589" 
d="M104 0q-21 0 -44.5 8.5t-39.5 23t-16 32.5q0 3 2 11l186 610q8 26 38 39t64 13q35 0 64.5 -13t37.5 -39l187 -610q2 -8 2 -11q0 -18 -16 -32.5t-39 -23t-45 -8.5q-19 0 -32.5 6.5t-18.5 22.5l-34 125h-211l-34 -125q-4 -16 -18 -22.5t-33 -6.5zM221 274h146l-73 268z
M290 794q-46 0 -85 31t-51 76q-4 15 4.5 23.5t23.5 8.5h20q14 0 21 -7t12 -20q7 -21 23 -33.5t32 -12.5q17 0 32 12.5t22 33.5q5 13 12.5 20t20.5 7h20q15 0 23.5 -8.5t4.5 -24.5q-13 -44 -51.5 -75t-83.5 -31zM296 944q-4 0 -7.5 1.5t-7.5 2.5l-140 65q-20 10 -20 34
q0 20 13.5 39t33.5 19q7 0 14 -3l140 -65q20 -10 20 -35q0 -19 -13 -38.5t-33 -19.5z" />
    <glyph glyph-name="uni1EB1" unicode="&#x1eb1;" horiz-adv-x="484" 
d="M146 -10q-52 0 -90 32.5t-38 100.5q0 59 30 92t82.5 46t121.5 13h36v10q0 17 -7 34t-23 28.5t-45 11.5q-41 0 -61 -8t-31 -16.5t-25 -8.5q-25 0 -38.5 25t-13.5 52q0 24 27.5 42t67 28t76.5 10q82 0 132 -28t73 -72.5t23 -95.5v-238q0 -20 -21.5 -34t-54.5 -14
q-29 0 -49 14t-20 34v22q-27 -31 -63 -55.5t-89 -24.5zM213 103q16 0 33 12.5t29.5 33.5t12.5 46v4h-4q-28 0 -53.5 -3.5t-41 -15t-15.5 -35.5q0 -22 11 -32t28 -10zM218 550q-46 0 -85 31t-51 76q-4 15 4.5 23.5t23.5 8.5h20q14 0 21 -7t12 -20q7 -21 23 -33.5t32 -12.5
q17 0 32 12.5t22 33.5q5 13 12.5 20t20.5 7h20q15 0 23.5 -8.5t4.5 -24.5q-13 -44 -51.5 -75t-83.5 -31zM224 700q-4 0 -7.5 1.5t-7.5 2.5l-140 65q-20 10 -20 34q0 20 13.5 39t33.5 19q7 0 14 -3l140 -65q20 -10 20 -35q0 -19 -13 -38.5t-33 -19.5z" />
    <glyph glyph-name="uni1EB2" unicode="&#x1eb2;" horiz-adv-x="589" 
d="M104 0q-21 0 -44.5 8.5t-39.5 23t-16 32.5q0 3 2 11l186 610q8 26 38 39t64 13q35 0 64.5 -13t37.5 -39l187 -610q2 -8 2 -11q0 -18 -16 -32.5t-39 -23t-45 -8.5q-19 0 -32.5 6.5t-18.5 22.5l-34 125h-211l-34 -125q-4 -16 -18 -22.5t-33 -6.5zM221 274h146l-73 268z
M295 792q-46 0 -85 31t-51 76q-4 15 4.5 23.5t23.5 8.5h20q14 0 21 -7t12 -20q7 -21 23 -33.5t32 -12.5q17 0 32 12.5t22 33.5q5 13 12.5 20t20.5 7h20q15 0 23.5 -8.5t4.5 -24.5q-13 -44 -51.5 -75t-83.5 -31zM204 1091q14 12 30.5 19.5t41.5 7.5q38 0 58 -13t27.5 -31.5
t7.5 -35.5q0 -14 -3.5 -26t-13.5 -23q-9 -10 -15.5 -18.5t-6.5 -15.5q0 -11 -9 -18.5t-22 -7.5q-12 0 -21.5 7t-9.5 19q0 9 4.5 17.5t10.5 17.5q8 11 14.5 21.5t6.5 17.5q0 12 -9.5 18.5t-21.5 6.5t-21 -5t-17 -11q-7 -4 -16.5 -4.5t-21.5 11.5t-7 25.5t14 20.5z" />
    <glyph glyph-name="uni1EB3" unicode="&#x1eb3;" horiz-adv-x="484" 
d="M146 -10q-52 0 -90 32.5t-38 100.5q0 59 30 92t82.5 46t121.5 13h36v10q0 17 -7 34t-23 28.5t-45 11.5q-41 0 -61 -8t-31 -16.5t-25 -8.5q-25 0 -38.5 25t-13.5 52q0 24 27.5 42t67 28t76.5 10q82 0 132 -28t73 -72.5t23 -95.5v-238q0 -20 -21.5 -34t-54.5 -14
q-29 0 -49 14t-20 34v22q-27 -31 -63 -55.5t-89 -24.5zM213 103q16 0 33 12.5t29.5 33.5t12.5 46v4h-4q-28 0 -53.5 -3.5t-41 -15t-15.5 -35.5q0 -22 11 -32t28 -10zM223 548q-46 0 -85 31t-51 76q-4 15 4.5 23.5t23.5 8.5h20q14 0 21 -7t12 -20q7 -21 23 -33.5t32 -12.5
q17 0 32 12.5t22 33.5q5 13 12.5 20t20.5 7h20q15 0 23.5 -8.5t4.5 -24.5q-13 -44 -51.5 -75t-83.5 -31zM132 847q14 12 30.5 19.5t41.5 7.5q38 0 58 -13t27.5 -31.5t7.5 -35.5q0 -14 -3.5 -26t-13.5 -23q-9 -10 -15.5 -18.5t-6.5 -15.5q0 -11 -9 -18.5t-22 -7.5
q-12 0 -21.5 7t-9.5 19q0 9 4.5 17.5t10.5 17.5q8 11 14.5 21.5t6.5 17.5q0 12 -9.5 18.5t-21.5 6.5t-21 -5t-17 -11q-7 -4 -16.5 -4.5t-21.5 11.5t-7 25.5t14 20.5z" />
    <glyph glyph-name="uni1EB4" unicode="&#x1eb4;" horiz-adv-x="521" 
d="M104 0q-21 0 -44.5 8.5t-39.5 23t-16 32.5q0 3 2 11l186 610q8 26 38 39t64 13q35 0 64.5 -13t37.5 -39l187 -610q2 -8 2 -11q0 -18 -16 -32.5t-39 -23t-45 -8.5q-19 0 -32.5 6.5t-18.5 22.5l-34 125h-211l-34 -125q-4 -16 -18 -22.5t-33 -6.5zM221 274h146l-73 268z
M292 797q-46 0 -85 31t-51 76q-4 15 4.5 23.5t23.5 8.5h20q14 0 21 -7t12 -20q7 -21 23 -33.5t32 -12.5q17 0 32 12.5t22 33.5q5 13 12.5 20t20.5 7h20q15 0 23.5 -8.5t4.5 -24.5q-13 -44 -51.5 -75t-83.5 -31zM383 908q-35 0 -59 7t-43.5 13.5t-43.5 6.5q-21 0 -36 -5
t-26.5 -10.5t-23.5 -5.5q-15 0 -23.5 10t-11.5 22t-3 17q0 27 10.5 41.5t25 21.5t28.5 8.5t21 1.5q31 0 53 -6.5t44 -13.5t49 -7q21 0 36 5.5t27 10.5t23 5q16 0 24 -10t11 -22t3 -17q0 -27 -10.5 -41.5t-25 -21.5t-28.5 -8.5t-21 -1.5z" />
    <glyph glyph-name="uni1EB5" unicode="&#x1eb5;" horiz-adv-x="423" 
d="M146 -10q-52 0 -90 32.5t-38 100.5q0 59 30 92t82.5 46t121.5 13h36v10q0 17 -7 34t-23 28.5t-45 11.5q-41 0 -61 -8t-31 -16.5t-25 -8.5q-25 0 -38.5 25t-13.5 52q0 24 27.5 42t67 28t76.5 10q82 0 132 -28t73 -72.5t23 -95.5v-238q0 -20 -21.5 -34t-54.5 -14
q-29 0 -49 14t-20 34v22q-27 -31 -63 -55.5t-89 -24.5zM213 103q16 0 33 12.5t29.5 33.5t12.5 46v4h-4q-28 0 -53.5 -3.5t-41 -15t-15.5 -35.5q0 -22 11 -32t28 -10zM243 538q-46 0 -85 31t-51 76q-4 15 4.5 23.5t23.5 8.5h20q14 0 21 -7t12 -20q7 -21 23 -33.5t32 -12.5
q17 0 32 12.5t22 33.5q5 13 12.5 20t20.5 7h20q15 0 23.5 -8.5t4.5 -24.5q-13 -44 -51.5 -75t-83.5 -31zM334 649q-35 0 -59 7t-43.5 13.5t-43.5 6.5q-21 0 -36 -5t-26.5 -10.5t-23.5 -5.5q-15 0 -23.5 10t-11.5 22t-3 17q0 27 10.5 41.5t25 21.5t28.5 8.5t21 1.5
q31 0 53 -6.5t44 -13.5t49 -7q21 0 36 5.5t27 10.5t23 5q16 0 24 -10t11 -22t3 -17q0 -27 -10.5 -41.5t-25 -21.5t-28.5 -8.5t-21 -1.5z" />
    <glyph glyph-name="uni1EB6" unicode="&#x1eb6;" horiz-adv-x="521" 
d="M104 0q-21 0 -44.5 8.5t-39.5 23t-16 32.5q0 3 2 11l186 610q8 26 38 39t64 13q35 0 64.5 -13t37.5 -39l187 -610q2 -8 2 -11q0 -18 -16 -32.5t-39 -23t-45 -8.5q-19 0 -32.5 6.5t-18.5 22.5l-34 125h-211l-34 -125q-4 -16 -18 -22.5t-33 -6.5zM221 274h146l-73 268z
M280 -132q-33 0 -55 23t-22 54q0 32 22 54.5t55 22.5q31 0 53.5 -22.5t22.5 -54.5q0 -31 -22.5 -54t-53.5 -23zM292 844q-46 0 -85 31t-51 76q-4 15 4.5 23.5t23.5 8.5h20q14 0 21 -7t12 -20q7 -21 23 -33.5t32 -12.5q17 0 32 12.5t22 33.5q5 13 12.5 20t20.5 7h20
q15 0 23.5 -8.5t4.5 -24.5q-13 -44 -51.5 -75t-83.5 -31z" />
    <glyph glyph-name="uni1EB7" unicode="&#x1eb7;" horiz-adv-x="423" 
d="M146 -10q-52 0 -90 32.5t-38 100.5q0 59 30 92t82.5 46t121.5 13h36v10q0 17 -7 34t-23 28.5t-45 11.5q-41 0 -61 -8t-31 -16.5t-25 -8.5q-25 0 -38.5 25t-13.5 52q0 24 27.5 42t67 28t76.5 10q82 0 132 -28t73 -72.5t23 -95.5v-238q0 -20 -21.5 -34t-54.5 -14
q-29 0 -49 14t-20 34v22q-27 -31 -63 -55.5t-89 -24.5zM213 103q16 0 33 12.5t29.5 33.5t12.5 46v4h-4q-28 0 -53.5 -3.5t-41 -15t-15.5 -35.5q0 -22 11 -32t28 -10zM231 -132q-33 0 -55 23t-22 54q0 32 22 54.5t55 22.5q31 0 53.5 -22.5t22.5 -54.5q0 -31 -22.5 -54
t-53.5 -23zM243 585q-46 0 -85 31t-51 76q-4 15 4.5 23.5t23.5 8.5h20q14 0 21 -7t12 -20q7 -21 23 -33.5t32 -12.5q17 0 32 12.5t22 33.5q5 13 12.5 20t20.5 7h20q15 0 23.5 -8.5t4.5 -24.5q-13 -44 -51.5 -75t-83.5 -31z" />
    <glyph glyph-name="uni1EB8" unicode="&#x1eb8;" horiz-adv-x="498" 
d="M122 0q-25 0 -46.5 12t-21.5 36v635q0 24 21.5 36t46.5 12h356q25 0 36 -21.5t11 -45.5q0 -28 -12 -48.5t-35 -20.5h-268v-169h150q23 0 35 -18.5t12 -42.5q0 -20 -11 -39.5t-36 -19.5h-150v-170h268q23 0 35 -20.5t12 -48.5q0 -24 -11 -45.5t-36 -21.5h-356zM268 -132
q-33 0 -55 23t-22 54q0 32 22 54.5t55 22.5q31 0 53.5 -22.5t22.5 -54.5q0 -31 -22.5 -54t-53.5 -23z" />
    <glyph glyph-name="uni1EB9" unicode="&#x1eb9;" horiz-adv-x="445" 
d="M280 -10q-74 0 -131 26.5t-89.5 74.5t-32.5 111v73q0 56 31 103t83 75.5t116 28.5q58 0 106.5 -24t78.5 -66.5t30 -99.5q0 -45 -14.5 -64.5t-37 -24t-45.5 -4.5h-193v-6q0 -37 28 -59.5t74 -22.5q31 0 53 9.5t39 18.5t33 9q18 0 31 -12t19.5 -28t6.5 -28q0 -19 -23 -40
t-64.5 -35.5t-98.5 -14.5zM182 286h124q11 0 16 5t5 19q0 20 -10.5 33.5t-27 20t-35.5 6.5q-18 0 -34.5 -6.5t-27 -20t-10.5 -33.5v-24zM248 -132q-33 0 -55 23t-22 54q0 32 22 54.5t55 22.5q31 0 53.5 -22.5t22.5 -54.5q0 -31 -22.5 -54t-53.5 -23z" />
    <glyph glyph-name="uni1EBA" unicode="&#x1eba;" horiz-adv-x="539" 
d="M122 0q-25 0 -46.5 12t-21.5 36v635q0 24 21.5 36t46.5 12h356q25 0 36 -21.5t11 -45.5q0 -28 -12 -48.5t-35 -20.5h-268v-169h150q23 0 35 -18.5t12 -42.5q0 -20 -11 -39.5t-36 -19.5h-150v-170h268q23 0 35 -20.5t12 -48.5q0 -24 -11 -45.5t-36 -21.5h-356zM191 953
q14 12 30.5 19.5t41.5 7.5q38 0 58 -13t27.5 -31.5t7.5 -35.5q0 -14 -3.5 -26t-13.5 -23q-9 -10 -15.5 -18.5t-6.5 -15.5q0 -11 -9 -18.5t-22 -7.5q-12 0 -21.5 7t-9.5 19q0 9 4.5 17.5t10.5 17.5q8 11 14.5 21.5t6.5 17.5q0 12 -9.5 18.5t-21.5 6.5t-21 -5t-17 -11
q-7 -4 -16.5 -4.5t-21.5 11.5t-7 25.5t14 20.5z" />
    <glyph glyph-name="uni1EBB" unicode="&#x1ebb;" horiz-adv-x="496" 
d="M280 -10q-74 0 -131 26.5t-89.5 74.5t-32.5 111v73q0 56 31 103t83 75.5t116 28.5q58 0 106.5 -24t78.5 -66.5t30 -99.5q0 -45 -14.5 -64.5t-37 -24t-45.5 -4.5h-193v-6q0 -37 28 -59.5t74 -22.5q31 0 53 9.5t39 18.5t33 9q18 0 31 -12t19.5 -28t6.5 -28q0 -19 -23 -40
t-64.5 -35.5t-98.5 -14.5zM182 286h124q11 0 16 5t5 19q0 20 -10.5 33.5t-27 20t-35.5 6.5q-18 0 -34.5 -6.5t-27 -20t-10.5 -33.5v-24zM166 713q14 12 30.5 19.5t41.5 7.5q38 0 58 -13t27.5 -31.5t7.5 -35.5q0 -14 -3.5 -26t-13.5 -23q-9 -10 -15.5 -18.5t-6.5 -15.5
q0 -11 -9 -18.5t-22 -7.5q-12 0 -21.5 7t-9.5 19q0 9 4.5 17.5t10.5 17.5q8 11 14.5 21.5t6.5 17.5q0 12 -9.5 18.5t-21.5 6.5t-21 -5t-17 -11q-7 -4 -16.5 -4.5t-21.5 11.5t-7 25.5t14 20.5z" />
    <glyph glyph-name="uni1EBC" unicode="&#x1ebc;" horiz-adv-x="539" 
d="M122 0q-25 0 -46.5 12t-21.5 36v635q0 24 21.5 36t46.5 12h356q25 0 36 -21.5t11 -45.5q0 -28 -12 -48.5t-35 -20.5h-268v-169h150q23 0 35 -18.5t12 -42.5q0 -20 -11 -39.5t-36 -19.5h-150v-170h268q23 0 35 -20.5t12 -48.5q0 -24 -11 -45.5t-36 -21.5h-356zM374 817
q-35 0 -59 7t-43.5 13.5t-43.5 6.5q-21 0 -36 -5t-26.5 -10.5t-23.5 -5.5q-15 0 -23.5 10t-11.5 22t-3 17q0 27 10.5 41.5t25 21.5t28.5 8.5t21 1.5q31 0 53 -6.5t44 -13.5t49 -7q21 0 36 5.5t27 10.5t23 5q16 0 24 -10t11 -22t3 -17q0 -27 -10.5 -41.5t-25 -21.5
t-28.5 -8.5t-21 -1.5z" />
    <glyph glyph-name="uni1EBD" unicode="&#x1ebd;" horiz-adv-x="496" 
d="M280 -10q-74 0 -131 26.5t-89.5 74.5t-32.5 111v73q0 56 31 103t83 75.5t116 28.5q58 0 106.5 -24t78.5 -66.5t30 -99.5q0 -45 -14.5 -64.5t-37 -24t-45.5 -4.5h-193v-6q0 -37 28 -59.5t74 -22.5q31 0 53 9.5t39 18.5t33 9q18 0 31 -12t19.5 -28t6.5 -28q0 -19 -23 -40
t-64.5 -35.5t-98.5 -14.5zM182 286h124q11 0 16 5t5 19q0 20 -10.5 33.5t-27 20t-35.5 6.5q-18 0 -34.5 -6.5t-27 -20t-10.5 -33.5v-24zM349 577q-35 0 -59 7t-43.5 13.5t-43.5 6.5q-21 0 -36 -5t-26.5 -10.5t-23.5 -5.5q-15 0 -23.5 10t-11.5 22t-3 17q0 27 10.5 41.5
t25 21.5t28.5 8.5t21 1.5q31 0 53 -6.5t44 -13.5t49 -7q21 0 36 5.5t27 10.5t23 5q16 0 24 -10t11 -22t3 -17q0 -27 -10.5 -41.5t-25 -21.5t-28.5 -8.5t-21 -1.5z" />
    <glyph glyph-name="uni1EBE" unicode="&#x1ebe;" horiz-adv-x="498" 
d="M122 0q-25 0 -46.5 12t-21.5 36v635q0 24 21.5 36t46.5 12h356q25 0 36 -21.5t11 -45.5q0 -28 -12 -48.5t-35 -20.5h-268v-169h150q23 0 35 -18.5t12 -42.5q0 -20 -11 -39.5t-36 -19.5h-150v-170h268q23 0 35 -20.5t12 -48.5q0 -24 -11 -45.5t-36 -21.5h-356zM201 781
q-13 0 -22 14.5t-9 31.5q0 27 25 44l84 56q8 5 17 5q10 0 17 -5l84 -56q25 -17 25 -44q0 -17 -8.5 -31.5t-22.5 -14.5q-2 0 -5 1l-6 2l-84 56l-84 -56l-6 -2t-5 -1zM263 880q-19 0 -32.5 19.5t-13.5 38.5q0 25 20 35l140 65q8 3 14 3q20 0 33.5 -19t13.5 -39q0 -24 -20 -34
l-140 -65q-4 -1 -7.5 -2.5t-7.5 -1.5z" />
    <glyph glyph-name="uni1EBF" unicode="&#x1ebf;" horiz-adv-x="445" 
d="M280 -10q-74 0 -131 26.5t-89.5 74.5t-32.5 111v73q0 56 31 103t83 75.5t116 28.5q58 0 106.5 -24t78.5 -66.5t30 -99.5q0 -45 -14.5 -64.5t-37 -24t-45.5 -4.5h-193v-6q0 -37 28 -59.5t74 -22.5q31 0 53 9.5t39 18.5t33 9q18 0 31 -12t19.5 -28t6.5 -28q0 -19 -23 -40
t-64.5 -35.5t-98.5 -14.5zM182 286h124q11 0 16 5t5 19q0 20 -10.5 33.5t-27 20t-35.5 6.5q-18 0 -34.5 -6.5t-27 -20t-10.5 -33.5v-24zM150 522q-13 0 -22 14.5t-9 31.5q0 27 25 44l84 56q8 5 17 5q10 0 17 -5l84 -56q25 -17 25 -44q0 -17 -8.5 -31.5t-22.5 -14.5
q-2 0 -5 1l-6 2l-84 56l-84 -56l-6 -2t-5 -1zM212 621q-19 0 -32.5 19.5t-13.5 38.5q0 25 20 35l140 65q8 3 14 3q20 0 33.5 -19t13.5 -39q0 -24 -20 -34l-140 -65q-4 -1 -7.5 -2.5t-7.5 -1.5z" />
    <glyph glyph-name="uni1EC0" unicode="&#x1ec0;" horiz-adv-x="498" 
d="M122 0q-25 0 -46.5 12t-21.5 36v635q0 24 21.5 36t46.5 12h356q25 0 36 -21.5t11 -45.5q0 -28 -12 -48.5t-35 -20.5h-268v-169h150q23 0 35 -18.5t12 -42.5q0 -20 -11 -39.5t-36 -19.5h-150v-170h268q23 0 35 -20.5t12 -48.5q0 -24 -11 -45.5t-36 -21.5h-356zM201 783
q-13 0 -22 14.5t-9 31.5q0 27 25 44l84 56q8 5 17 5q10 0 17 -5l84 -56q25 -17 25 -44q0 -17 -8.5 -31.5t-22.5 -14.5q-2 0 -5 1l-6 2l-84 56l-84 -56l-6 -2t-5 -1zM399 878q-4 0 -7.5 1.5t-7.5 2.5l-140 65q-20 10 -20 34q0 20 13.5 39t33.5 19q7 0 14 -3l140 -65
q20 -10 20 -35q0 -19 -13 -38.5t-33 -19.5z" />
    <glyph glyph-name="uni1EC1" unicode="&#x1ec1;" horiz-adv-x="445" 
d="M280 -10q-74 0 -131 26.5t-89.5 74.5t-32.5 111v73q0 56 31 103t83 75.5t116 28.5q58 0 106.5 -24t78.5 -66.5t30 -99.5q0 -45 -14.5 -64.5t-37 -24t-45.5 -4.5h-193v-6q0 -37 28 -59.5t74 -22.5q31 0 53 9.5t39 18.5t33 9q18 0 31 -12t19.5 -28t6.5 -28q0 -19 -23 -40
t-64.5 -35.5t-98.5 -14.5zM182 286h124q11 0 16 5t5 19q0 20 -10.5 33.5t-27 20t-35.5 6.5q-18 0 -34.5 -6.5t-27 -20t-10.5 -33.5v-24zM150 524q-13 0 -22 14.5t-9 31.5q0 27 25 44l84 56q8 5 17 5q10 0 17 -5l84 -56q25 -17 25 -44q0 -17 -8.5 -31.5t-22.5 -14.5
q-2 0 -5 1l-6 2l-84 56l-84 -56l-6 -2t-5 -1zM348 619q-4 0 -7.5 1.5t-7.5 2.5l-140 65q-20 10 -20 34q0 20 13.5 39t33.5 19q7 0 14 -3l140 -65q20 -10 20 -35q0 -19 -13 -38.5t-33 -19.5z" />
    <glyph glyph-name="uni1EC2" unicode="&#x1ec2;" horiz-adv-x="539" 
d="M122 0q-25 0 -46.5 12t-21.5 36v635q0 24 21.5 36t46.5 12h356q25 0 36 -21.5t11 -45.5q0 -28 -12 -48.5t-35 -20.5h-268v-169h150q23 0 35 -18.5t12 -42.5q0 -20 -11 -39.5t-36 -19.5h-150v-170h268q23 0 35 -20.5t12 -48.5q0 -24 -11 -45.5t-36 -21.5h-356zM187 793
q-13 0 -22 14.5t-9 31.5q0 27 25 44l84 56q8 5 17 5q10 0 17 -5l84 -56q25 -17 25 -44q0 -17 -8.5 -31.5t-22.5 -14.5q-2 0 -5 1l-6 2l-84 56l-84 -56l-6 -2t-5 -1zM328 1065q14 12 30.5 19.5t41.5 7.5q38 0 58 -13t27.5 -31.5t7.5 -35.5q0 -14 -3.5 -26t-13.5 -23
q-9 -10 -15.5 -18.5t-6.5 -15.5q0 -11 -9 -18.5t-22 -7.5q-12 0 -21.5 7t-9.5 19q0 9 4.5 17.5t10.5 17.5q8 11 14.5 21.5t6.5 17.5q0 12 -9.5 18.5t-21.5 6.5t-21 -5t-17 -11q-7 -4 -16.5 -4.5t-21.5 11.5t-7 25.5t14 20.5z" />
    <glyph glyph-name="uni1EC3" unicode="&#x1ec3;" horiz-adv-x="496" 
d="M280 -10q-74 0 -131 26.5t-89.5 74.5t-32.5 111v73q0 56 31 103t83 75.5t116 28.5q58 0 106.5 -24t78.5 -66.5t30 -99.5q0 -45 -14.5 -64.5t-37 -24t-45.5 -4.5h-193v-6q0 -37 28 -59.5t74 -22.5q31 0 53 9.5t39 18.5t33 9q18 0 31 -12t19.5 -28t6.5 -28q0 -19 -23 -40
t-64.5 -35.5t-98.5 -14.5zM182 286h124q11 0 16 5t5 19q0 20 -10.5 33.5t-27 20t-35.5 6.5q-18 0 -34.5 -6.5t-27 -20t-10.5 -33.5v-24zM162 553q-13 0 -22 14.5t-9 31.5q0 27 25 44l84 56q8 5 17 5q10 0 17 -5l84 -56q25 -17 25 -44q0 -17 -8.5 -31.5t-22.5 -14.5
q-2 0 -5 1l-6 2l-84 56l-84 -56l-6 -2t-5 -1zM303 825q14 12 30.5 19.5t41.5 7.5q38 0 58 -13t27.5 -31.5t7.5 -35.5q0 -14 -3.5 -26t-13.5 -23q-9 -10 -15.5 -18.5t-6.5 -15.5q0 -11 -9 -18.5t-22 -7.5q-12 0 -21.5 7t-9.5 19q0 9 4.5 17.5t10.5 17.5q8 11 14.5 21.5
t6.5 17.5q0 12 -9.5 18.5t-21.5 6.5t-21 -5t-17 -11q-7 -4 -16.5 -4.5t-21.5 11.5t-7 25.5t14 20.5z" />
    <glyph glyph-name="uni1EC4" unicode="&#x1ec4;" horiz-adv-x="498" 
d="M122 0q-25 0 -46.5 12t-21.5 36v635q0 24 21.5 36t46.5 12h356q25 0 36 -21.5t11 -45.5q0 -28 -12 -48.5t-35 -20.5h-268v-169h150q23 0 35 -18.5t12 -42.5q0 -20 -11 -39.5t-36 -19.5h-150v-170h268q23 0 35 -20.5t12 -48.5q0 -24 -11 -45.5t-36 -21.5h-356zM201 781
q-13 0 -22 14.5t-9 31.5q0 27 25 44l84 56q8 5 17 5q10 0 17 -5l84 -56q25 -17 25 -44q0 -17 -8.5 -31.5t-22.5 -14.5q-2 0 -5 1l-6 2l-84 56l-84 -56l-6 -2t-5 -1zM402 875q-35 0 -59 7t-43.5 13.5t-43.5 6.5q-21 0 -36 -5t-26.5 -10.5t-23.5 -5.5q-15 0 -23.5 10t-11.5 22
t-3 17q0 27 10.5 41.5t25 21.5t28.5 8.5t21 1.5q31 0 53 -6.5t44 -13.5t49 -7q21 0 36 5.5t27 10.5t23 5q16 0 24 -10t11 -22t3 -17q0 -27 -10.5 -41.5t-25 -21.5t-28.5 -8.5t-21 -1.5z" />
    <glyph glyph-name="uni1EC5" unicode="&#x1ec5;" horiz-adv-x="445" 
d="M280 -10q-74 0 -131 26.5t-89.5 74.5t-32.5 111v73q0 56 31 103t83 75.5t116 28.5q58 0 106.5 -24t78.5 -66.5t30 -99.5q0 -45 -14.5 -64.5t-37 -24t-45.5 -4.5h-193v-6q0 -37 28 -59.5t74 -22.5q31 0 53 9.5t39 18.5t33 9q18 0 31 -12t19.5 -28t6.5 -28q0 -19 -23 -40
t-64.5 -35.5t-98.5 -14.5zM182 286h124q11 0 16 5t5 19q0 20 -10.5 33.5t-27 20t-35.5 6.5q-18 0 -34.5 -6.5t-27 -20t-10.5 -33.5v-24zM150 522q-13 0 -22 14.5t-9 31.5q0 27 25 44l84 56q8 5 17 5q10 0 17 -5l84 -56q25 -17 25 -44q0 -17 -8.5 -31.5t-22.5 -14.5
q-2 0 -5 1l-6 2l-84 56l-84 -56l-6 -2t-5 -1zM351 616q-35 0 -59 7t-43.5 13.5t-43.5 6.5q-21 0 -36 -5t-26.5 -10.5t-23.5 -5.5q-15 0 -23.5 10t-11.5 22t-3 17q0 27 10.5 41.5t25 21.5t28.5 8.5t21 1.5q31 0 53 -6.5t44 -13.5t49 -7q21 0 36 5.5t27 10.5t23 5q16 0 24 -10
t11 -22t3 -17q0 -27 -10.5 -41.5t-25 -21.5t-28.5 -8.5t-21 -1.5z" />
    <glyph glyph-name="uni1EC6" unicode="&#x1ec6;" horiz-adv-x="498" 
d="M122 0q-25 0 -46.5 12t-21.5 36v635q0 24 21.5 36t46.5 12h356q25 0 36 -21.5t11 -45.5q0 -28 -12 -48.5t-35 -20.5h-268v-169h150q23 0 35 -18.5t12 -42.5q0 -20 -11 -39.5t-36 -19.5h-150v-170h268q23 0 35 -20.5t12 -48.5q0 -24 -11 -45.5t-36 -21.5h-356zM268 -132
q-33 0 -55 23t-22 54q0 32 22 54.5t55 22.5q31 0 53.5 -22.5t22.5 -54.5q0 -31 -22.5 -54t-53.5 -23zM181 828q-13 0 -22 14.5t-9 31.5q0 13 6 25t19 19l104 56q10 5 17 5t17 -5l104 -56q14 -7 19.5 -19t5.5 -25q0 -17 -8.5 -31.5t-22.5 -14.5q-2 0 -5 1l-6 2l-104 56
l-104 -56l-6 -2t-5 -1z" />
    <glyph glyph-name="uni1EC7" unicode="&#x1ec7;" horiz-adv-x="445" 
d="M280 -10q-74 0 -131 26.5t-89.5 74.5t-32.5 111v73q0 56 31 103t83 75.5t116 28.5q58 0 106.5 -24t78.5 -66.5t30 -99.5q0 -45 -14.5 -64.5t-37 -24t-45.5 -4.5h-193v-6q0 -37 28 -59.5t74 -22.5q31 0 53 9.5t39 18.5t33 9q18 0 31 -12t19.5 -28t6.5 -28q0 -19 -23 -40
t-64.5 -35.5t-98.5 -14.5zM182 286h124q11 0 16 5t5 19q0 20 -10.5 33.5t-27 20t-35.5 6.5q-18 0 -34.5 -6.5t-27 -20t-10.5 -33.5v-24zM248 -132q-33 0 -55 23t-22 54q0 32 22 54.5t55 22.5q31 0 53.5 -22.5t22.5 -54.5q0 -31 -22.5 -54t-53.5 -23zM130 569q-13 0 -22 14.5
t-9 31.5q0 13 6 25t19 19l104 56q10 5 17 5t17 -5l104 -56q14 -7 19.5 -19t5.5 -25q0 -17 -8.5 -31.5t-22.5 -14.5q-2 0 -5 1l-6 2l-104 56l-104 -56l-6 -2t-5 -1z" />
    <glyph glyph-name="uni1EC8" unicode="&#x1ec8;" horiz-adv-x="264" 
d="M132 0q-29 0 -53.5 12t-24.5 36v636q0 25 24.5 36t53.5 11t53.5 -11t24.5 -36v-636q0 -24 -24.5 -36t-53.5 -12zM41 953q14 12 30.5 19.5t41.5 7.5q38 0 58 -13t27.5 -31.5t7.5 -35.5q0 -14 -3.5 -26t-13.5 -23q-9 -10 -15.5 -18.5t-6.5 -15.5q0 -11 -9 -18.5t-22 -7.5
q-12 0 -21.5 7t-9.5 19q0 9 4.5 17.5t10.5 17.5q8 11 14.5 21.5t6.5 17.5q0 12 -9.5 18.5t-21.5 6.5t-21 -5t-17 -11q-7 -4 -16.5 -4.5t-21.5 11.5t-7 25.5t14 20.5z" />
    <glyph glyph-name="uni1EC9" unicode="&#x1ec9;" horiz-adv-x="244" 
d="M122 0q-34 0 -55.5 15t-21.5 33v381q0 21 21.5 34t55.5 13q32 0 55 -13t23 -34v-381q0 -18 -23 -33t-55 -15zM31 712q14 12 30.5 19.5t41.5 7.5q38 0 58 -13t27.5 -31.5t7.5 -35.5q0 -14 -3.5 -26t-13.5 -23q-9 -10 -15.5 -18.5t-6.5 -15.5q0 -11 -9 -18.5t-22 -7.5
q-12 0 -21.5 7t-9.5 19q0 9 4.5 17.5t10.5 17.5q8 11 14.5 21.5t6.5 17.5q0 12 -9.5 18.5t-21.5 6.5t-21 -5t-17 -11q-7 -4 -16.5 -4.5t-21.5 11.5t-7 25.5t14 20.5z" />
    <glyph glyph-name="uni1ECA" unicode="&#x1eca;" horiz-adv-x="202" 
d="M132 0q-29 0 -53.5 12t-24.5 36v636q0 25 24.5 36t53.5 11t53.5 -11t24.5 -36v-636q0 -24 -24.5 -36t-53.5 -12zM120 -132q-33 0 -55 23t-22 54q0 32 22 54.5t55 22.5q31 0 53.5 -22.5t22.5 -54.5q0 -31 -22.5 -54t-53.5 -23z" />
    <glyph glyph-name="uni1ECB" unicode="&#x1ecb;" horiz-adv-x="171" 
d="M122 568q-34 0 -58 22t-24 50q0 29 24 50t58 21t57.5 -21t23.5 -50q0 -28 -23.5 -50t-57.5 -22zM122 0q-34 0 -55.5 15t-21.5 33v381q0 21 21.5 34t55.5 13q32 0 55 -13t23 -34v-381q0 -18 -23 -33t-55 -15zM105 -132q-33 0 -55 23t-22 54q0 32 22 54.5t55 22.5
q31 0 53.5 -22.5t22.5 -54.5q0 -31 -22.5 -54t-53.5 -23z" />
    <glyph glyph-name="uni1ECC" unicode="&#x1ecc;" horiz-adv-x="543" 
d="M291 -6q-69 0 -124.5 23t-88 75t-32.5 138v265q0 86 32.5 138t88 75t124.5 23t125 -23t88.5 -75t32.5 -138v-265q0 -86 -32.5 -138t-88.5 -75t-125 -23zM291 130q42 0 66 24t24 76v265q0 52 -24 76t-66 24t-65.5 -24t-23.5 -76v-265q0 -52 23.5 -76t65.5 -24zM291 -132
q-33 0 -55 23t-22 54q0 32 22 54.5t55 22.5q31 0 53.5 -22.5t22.5 -54.5q0 -31 -22.5 -54t-53.5 -23z" />
    <glyph glyph-name="uni1ECD" unicode="&#x1ecd;" horiz-adv-x="455" 
d="M254 -10q-61 0 -112.5 29.5t-83 78t-31.5 104.5v70q0 56 30.5 104t82.5 77t114 29q61 0 113 -28.5t83.5 -76t31.5 -105.5v-70q0 -55 -31.5 -103.5t-83.5 -78.5t-113 -30zM254 125q20 0 36.5 11t26.5 28.5t10 37.5v70q0 19 -10 36t-26.5 28t-36.5 11t-36.5 -11t-26 -28
t-9.5 -36v-70q0 -20 9.5 -37.5t26 -28.5t36.5 -11zM247 -132q-33 0 -55 23t-22 54q0 32 22 54.5t55 22.5q31 0 53.5 -22.5t22.5 -54.5q0 -31 -22.5 -54t-53.5 -23z" />
    <glyph glyph-name="uni1ECE" unicode="&#x1ece;" horiz-adv-x="583" 
d="M291 -6q-69 0 -124.5 23t-88 75t-32.5 138v265q0 86 32.5 138t88 75t124.5 23t125 -23t88.5 -75t32.5 -138v-265q0 -86 -32.5 -138t-88.5 -75t-125 -23zM291 130q42 0 66 24t24 76v265q0 52 -24 76t-66 24t-65.5 -24t-23.5 -76v-265q0 -52 23.5 -76t65.5 -24zM201 953
q14 12 30.5 19.5t41.5 7.5q38 0 58 -13t27.5 -31.5t7.5 -35.5q0 -14 -3.5 -26t-13.5 -23q-9 -10 -15.5 -18.5t-6.5 -15.5q0 -11 -9 -18.5t-22 -7.5q-12 0 -21.5 7t-9.5 19q0 9 4.5 17.5t10.5 17.5q8 11 14.5 21.5t6.5 17.5q0 12 -9.5 18.5t-21.5 6.5t-21 -5t-17 -11
q-7 -4 -16.5 -4.5t-21.5 11.5t-7 25.5t14 20.5z" />
    <glyph glyph-name="uni1ECF" unicode="&#x1ecf;" horiz-adv-x="509" 
d="M254 -10q-61 0 -112.5 29.5t-83 78t-31.5 104.5v70q0 56 30.5 104t82.5 77t114 29q61 0 113 -28.5t83.5 -76t31.5 -105.5v-70q0 -55 -31.5 -103.5t-83.5 -78.5t-113 -30zM254 125q20 0 36.5 11t26.5 28.5t10 37.5v70q0 19 -10 36t-26.5 28t-36.5 11t-36.5 -11t-26 -28
t-9.5 -36v-70q0 -20 9.5 -37.5t26 -28.5t36.5 -11zM163 712q14 12 30.5 19.5t41.5 7.5q38 0 58 -13t27.5 -31.5t7.5 -35.5q0 -14 -3.5 -26t-13.5 -23q-9 -10 -15.5 -18.5t-6.5 -15.5q0 -11 -9 -18.5t-22 -7.5q-12 0 -21.5 7t-9.5 19q0 9 4.5 17.5t10.5 17.5q8 11 14.5 21.5
t6.5 17.5q0 12 -9.5 18.5t-21.5 6.5t-21 -5t-17 -11q-7 -4 -16.5 -4.5t-21.5 11.5t-7 25.5t14 20.5z" />
    <glyph glyph-name="uni1ED0" unicode="&#x1ed0;" horiz-adv-x="543" 
d="M291 -6q-69 0 -124.5 23t-88 75t-32.5 138v265q0 86 32.5 138t88 75t124.5 23t125 -23t88.5 -75t32.5 -138v-265q0 -86 -32.5 -138t-88.5 -75t-125 -23zM291 130q42 0 66 24t24 76v265q0 52 -24 76t-66 24t-65.5 -24t-23.5 -76v-265q0 -52 23.5 -76t65.5 -24zM193 781
q-13 0 -22 14.5t-9 31.5q0 27 25 44l84 56q8 5 17 5q10 0 17 -5l84 -56q25 -17 25 -44q0 -17 -8.5 -31.5t-22.5 -14.5q-2 0 -5 1l-6 2l-84 56l-84 -56l-6 -2t-5 -1zM255 880q-19 0 -32.5 19.5t-13.5 38.5q0 25 20 35l140 65q8 3 14 3q20 0 33.5 -19t13.5 -39q0 -24 -20 -34
l-140 -65q-4 -1 -7.5 -2.5t-7.5 -1.5z" />
    <glyph glyph-name="uni1ED1" unicode="&#x1ed1;" horiz-adv-x="455" 
d="M254 -10q-61 0 -112.5 29.5t-83 78t-31.5 104.5v70q0 56 30.5 104t82.5 77t114 29q61 0 113 -28.5t83.5 -76t31.5 -105.5v-70q0 -55 -31.5 -103.5t-83.5 -78.5t-113 -30zM254 125q20 0 36.5 11t26.5 28.5t10 37.5v70q0 19 -10 36t-26.5 28t-36.5 11t-36.5 -11t-26 -28
t-9.5 -36v-70q0 -20 9.5 -37.5t26 -28.5t36.5 -11zM149 522q-13 0 -22 14.5t-9 31.5q0 27 25 44l84 56q8 5 17 5q10 0 17 -5l84 -56q25 -17 25 -44q0 -17 -8.5 -31.5t-22.5 -14.5q-2 0 -5 1l-6 2l-84 56l-84 -56l-6 -2t-5 -1zM211 621q-19 0 -32.5 19.5t-13.5 38.5
q0 25 20 35l140 65q8 3 14 3q20 0 33.5 -19t13.5 -39q0 -24 -20 -34l-140 -65q-4 -1 -7.5 -2.5t-7.5 -1.5z" />
    <glyph glyph-name="uni1ED2" unicode="&#x1ed2;" horiz-adv-x="543" 
d="M291 -6q-69 0 -124.5 23t-88 75t-32.5 138v265q0 86 32.5 138t88 75t124.5 23t125 -23t88.5 -75t32.5 -138v-265q0 -86 -32.5 -138t-88.5 -75t-125 -23zM291 130q42 0 66 24t24 76v265q0 52 -24 76t-66 24t-65.5 -24t-23.5 -76v-265q0 -52 23.5 -76t65.5 -24zM193 783
q-13 0 -22 14.5t-9 31.5q0 27 25 44l84 56q8 5 17 5q10 0 17 -5l84 -56q25 -17 25 -44q0 -17 -8.5 -31.5t-22.5 -14.5q-2 0 -5 1l-6 2l-84 56l-84 -56l-6 -2t-5 -1zM391 878q-4 0 -7.5 1.5t-7.5 2.5l-140 65q-20 10 -20 34q0 20 13.5 39t33.5 19q7 0 14 -3l140 -65
q20 -10 20 -35q0 -19 -13 -38.5t-33 -19.5z" />
    <glyph glyph-name="uni1ED3" unicode="&#x1ed3;" horiz-adv-x="455" 
d="M254 -10q-61 0 -112.5 29.5t-83 78t-31.5 104.5v70q0 56 30.5 104t82.5 77t114 29q61 0 113 -28.5t83.5 -76t31.5 -105.5v-70q0 -55 -31.5 -103.5t-83.5 -78.5t-113 -30zM254 125q20 0 36.5 11t26.5 28.5t10 37.5v70q0 19 -10 36t-26.5 28t-36.5 11t-36.5 -11t-26 -28
t-9.5 -36v-70q0 -20 9.5 -37.5t26 -28.5t36.5 -11zM149 524q-13 0 -22 14.5t-9 31.5q0 27 25 44l84 56q8 5 17 5q10 0 17 -5l84 -56q25 -17 25 -44q0 -17 -8.5 -31.5t-22.5 -14.5q-2 0 -5 1l-6 2l-84 56l-84 -56l-6 -2t-5 -1zM347 619q-4 0 -7.5 1.5t-7.5 2.5l-140 65
q-20 10 -20 34q0 20 13.5 39t33.5 19q7 0 14 -3l140 -65q20 -10 20 -35q0 -19 -13 -38.5t-33 -19.5z" />
    <glyph glyph-name="uni1ED4" unicode="&#x1ed4;" horiz-adv-x="583" 
d="M291 -6q-69 0 -124.5 23t-88 75t-32.5 138v265q0 86 32.5 138t88 75t124.5 23t125 -23t88.5 -75t32.5 -138v-265q0 -86 -32.5 -138t-88.5 -75t-125 -23zM291 130q42 0 66 24t24 76v265q0 52 -24 76t-66 24t-65.5 -24t-23.5 -76v-265q0 -52 23.5 -76t65.5 -24zM197 793
q-13 0 -22 14.5t-9 31.5q0 27 25 44l84 56q8 5 17 5q10 0 17 -5l84 -56q25 -17 25 -44q0 -17 -8.5 -31.5t-22.5 -14.5q-2 0 -5 1l-6 2l-84 56l-84 -56l-6 -2t-5 -1zM338 1065q14 12 30.5 19.5t41.5 7.5q38 0 58 -13t27.5 -31.5t7.5 -35.5q0 -14 -3.5 -26t-13.5 -23
q-9 -10 -15.5 -18.5t-6.5 -15.5q0 -11 -9 -18.5t-22 -7.5q-12 0 -21.5 7t-9.5 19q0 9 4.5 17.5t10.5 17.5q8 11 14.5 21.5t6.5 17.5q0 12 -9.5 18.5t-21.5 6.5t-21 -5t-17 -11q-7 -4 -16.5 -4.5t-21.5 11.5t-7 25.5t14 20.5z" />
    </font>
</defs>
</svg>
