<?xml version="1.0" standalone="no"?>
<!DOCTYPE svg PUBLIC "-//W3C//DTD SVG 1.1//EN" "http://www.w3.org/Graphics/SVG/1.1/DTD/svg11.dtd" >
<svg xmlns="http://www.w3.org/2000/svg" xmlns:xlink="http://www.w3.org/1999/xlink" version="1.1">
<metadata>
Created by FontForge 20201107 at Tue Aug 31 23:41:11 2021
 By 
Copyright 2011 The Dosis Project Authors (https://github.com/googlefonts/dosis-vf)
</metadata>
<defs>
<font id="Dosis-Medium" horiz-adv-x="0" >
  <font-face 
    font-family="Dosis Medium"
    font-weight="500"
    font-stretch="normal"
    units-per-em="1000"
    panose-1="0 0 0 0 0 0 0 0 0 0"
    ascent="800"
    descent="-200"
    x-height="474"
    cap-height="731"
    bbox="-138 -237 1049 1083"
    underline-thickness="50"
    underline-position="-125"
    unicode-range="U+000D-FB02"
  />
<missing-glyph horiz-adv-x="353" 
d="M84 61q-14 0 -25 9t-11 22q0 5 1.5 10t4.5 9l83 125l-83 125q-3 5 -4.5 10t-1.5 9q0 14 11 23t25 9q16 0 26 -14l67 -107l67 107q9 14 26 14q13 0 24 -9t11 -23q0 -4 -1 -9t-4 -10l-83 -125l82 -125q4 -4 5 -9t1 -10q0 -13 -11 -22t-25 -9q-16 0 -26 14l-66 106l-67 -106
q-10 -14 -26 -14z" />
    <glyph glyph-name="fi" unicode="fi" horiz-adv-x="522" 
d="M100 0q-17 0 -28.5 8t-11.5 21v532q0 51 25.5 96.5t74.5 74t119 28.5q39 0 75 -8.5t59.5 -23.5t23.5 -33q0 -6 -3.5 -17.5t-11 -20.5t-16.5 -9q-10 0 -23.5 10t-37 19.5t-64.5 9.5q-37 0 -63.5 -11t-43 -29t-24 -39.5t-7.5 -43.5v-90h120q12 0 19 -10t7 -23q0 -12 -7 -22
t-19 -10h-120v-380q0 -13 -13 -21t-30 -8zM422 0q-17 0 -29 9.5t-12 20.5v415q0 13 12 21t29 8q18 0 30 -8t12 -21v-415q0 -11 -12 -20.5t-30 -9.5z" />
    <glyph glyph-name="fl" unicode="fl" horiz-adv-x="533" 
d="M100 0q-17 0 -28.5 8t-11.5 21v532q0 63 32.5 107.5t85 68t111.5 23.5q31 0 64.5 -7t62.5 -22t49 -37v-664q0 -11 -12 -20.5t-30 -9.5t-29.5 9.5t-11.5 20.5v628q-18 17 -44 25.5t-52 8.5q-36 0 -68.5 -15.5t-53.5 -44t-21 -68.5v-90h120q12 0 19 -10t7 -23q0 -12 -7 -22
t-19 -10h-120v-380q0 -13 -13 -21t-30 -8z" />
    <glyph glyph-name=".notdef" horiz-adv-x="353" 
d="M84 61q-14 0 -25 9t-11 22q0 5 1.5 10t4.5 9l83 125l-83 125q-3 5 -4.5 10t-1.5 9q0 14 11 23t25 9q16 0 26 -14l67 -107l67 107q9 14 26 14q13 0 24 -9t11 -23q0 -4 -1 -9t-4 -10l-83 -125l82 -125q4 -4 5 -9t1 -10q0 -13 -11 -22t-25 -9q-16 0 -26 14l-66 106l-67 -106
q-10 -14 -26 -14z" />
    <glyph glyph-name=".null" 
 />
    <glyph glyph-name="nonmarkingreturn" horiz-adv-x="333" 
 />
    <glyph glyph-name="NULL" 
 />
    <glyph glyph-name="NULL" 
 />
    <glyph glyph-name="CR" unicode="&#xd;" horiz-adv-x="200" 
 />
    <glyph glyph-name="space" unicode=" " horiz-adv-x="200" 
 />
    <glyph glyph-name="exclam" unicode="!" horiz-adv-x="207" 
d="M104 175q-13 0 -23 7t-10 20q0 78 -3 163t-6 170.5t-3 162.5q0 21 13 32t32 11q18 0 31.5 -11t13.5 -32q0 -77 -3 -162.5t-6.5 -170.5t-3.5 -163q0 -13 -11 -20t-21 -7zM105 -6q-23 0 -38 16t-15 36q0 22 15 37.5t38 15.5q20 0 35.5 -15.5t15.5 -37.5q0 -20 -15.5 -36
t-35.5 -16z" />
    <glyph glyph-name="quotedbl" unicode="&#x22;" horiz-adv-x="279" 
d="M207 572q-14 0 -20 8t-6 18l-10 145q0 12 11.5 18.5t24.5 6.5t25 -6.5t12 -18.5l-10 -145q0 -10 -6.5 -18t-20.5 -8zM71 572q-14 0 -20 8t-6 18l-10 145q0 12 11.5 18.5t24.5 6.5t25 -6.5t12 -18.5l-10 -145q0 -10 -6.5 -18t-20.5 -8z" />
    <glyph glyph-name="numbersign" unicode="#" horiz-adv-x="615" 
d="M159 33q-14 0 -27.5 8.5t-13.5 25.5l28 177h-91q-13 0 -20 8.5t-7 22.5t6.5 23.5t17.5 9.5h106l24 149h-91q-14 0 -21 9t-7 23t7 23t18 9h107l28 173q2 9 12 14t21 5q17 0 28.5 -8.5t11.5 -26.5l-26 -157h122l28 173q2 9 12 14t22 5q16 0 27.5 -8.5t11.5 -26.5l-26 -157
h92q11 0 20 -8.5t9 -23.5q0 -13 -8 -22.5t-17 -9.5h-107l-25 -149h93q10 0 19.5 -9t9.5 -24q0 -13 -8 -22t-18 -9h-107l-31 -189q-2 -9 -12.5 -15.5t-21.5 -6.5q-9 0 -18.5 4t-15.5 11.5t-6 18.5l28 177h-121l-30 -188q-2 -11 -12.5 -17t-20.5 -6zM234 308h121l25 149h-121z
" />
    <glyph glyph-name="dollar" unicode="$" horiz-adv-x="507" 
d="M266 -52q-11 0 -18.5 6.5t-7.5 14.5v33q-63 1 -108.5 20.5t-70.5 45.5t-25 47q0 10 5.5 20.5t14 18t17.5 7.5q11 0 22.5 -11.5t28.5 -26.5t45 -27.5t71 -14.5v266q-34 11 -66.5 25t-60 34.5t-43.5 52.5t-16 80q0 47 16 79.5t43 53t60 31.5t67 14v30q0 9 7.5 15t18.5 6
q9 0 17.5 -6t8.5 -15v-28q26 -1 53.5 -6t51 -13t38 -20t14.5 -27q0 -8 -4 -18.5t-12 -19t-20 -8.5q-10 0 -24.5 8.5t-37.5 17.5t-59 11v-228q31 -11 62.5 -26.5t57 -38.5t40.5 -58.5t15 -86.5q0 -91 -49 -140.5t-126 -60.5v-36q0 -8 -8.5 -14.5t-17.5 -6.5zM288 83
q47 8 73 36.5t26 78.5q0 38 -13.5 62.5t-36 40.5t-49.5 27v-245zM244 433v210q-30 -3 -55 -13.5t-40 -30.5t-15 -52q0 -34 15 -55.5t40 -34.5t55 -24z" />
    <glyph glyph-name="percent" unicode="%" horiz-adv-x="767" 
d="M201 -30q-14 0 -23 9t-9 21q0 7 3 13l375 742q7 15 24 15q12 0 23.5 -9.5t11.5 -23.5q0 -7 -4 -14l-373 -737q-4 -8 -12 -12t-16 -4zM166 345q-55 0 -92 27t-37 91v150q0 64 37 91t92 27q37 0 66 -11.5t46 -37.5t17 -69v-150q0 -43 -17 -69t-46 -37.5t-66 -11.5zM166 398
q32 0 50.5 16t18.5 49v150q0 33 -18.5 49t-50.5 16t-50 -16t-18 -49v-150q0 -33 18 -49t50 -16zM601 -3q-55 0 -92 27t-37 91v150q0 64 37 91t92 27q37 0 66 -11.5t46 -37.5t17 -69v-150q0 -43 -17 -69t-46 -37.5t-66 -11.5zM601 50q32 0 50.5 16t18.5 49v150q0 33 -18.5 49
t-50.5 16t-50 -16t-18 -49v-150q0 -33 18 -49t50 -16z" />
    <glyph glyph-name="ampersand" unicode="&#x26;" horiz-adv-x="619" 
d="M267 -10q-73 0 -126 30t-81 78.5t-28 106.5q0 50 19 88.5t49.5 67t63.5 44.5q-29 35 -53 75t-24 95t25.5 94t68.5 59t94 20q57 0 95.5 -18.5t58 -42.5t19.5 -41q0 -15 -12 -27t-28 -12q-11 0 -21 11t-22.5 25.5t-33 25t-53.5 10.5q-49 0 -78.5 -29t-29.5 -80
q0 -33 14.5 -62.5t36.5 -55.5t45 -51l191 -208q20 46 24.5 92t5.5 77q2 16 9.5 23t28.5 7t28.5 -10.5t7.5 -31.5t-4.5 -56t-15.5 -76t-32 -79l89 -95q3 -4 4.5 -8.5t1.5 -8.5q0 -13 -12 -24t-26 -11q-6 0 -11 2.5t-11 8.5l-76 80q-33 -40 -82.5 -66.5t-118.5 -26.5zM278 65
q51 0 84.5 20t54.5 51l-205 218q-21 -13 -43 -31.5t-37 -45t-15 -65.5t18.5 -73t54.5 -54t88 -20z" />
    <glyph glyph-name="quotesingle" unicode="'" horiz-adv-x="143" 
d="M71 572q-14 0 -20 8t-6 18l-10 145q0 12 11.5 18.5t24.5 6.5t25 -6.5t12 -18.5l-10 -145q0 -10 -6.5 -18t-20.5 -8z" />
    <glyph glyph-name="parenleft" unicode="(" horiz-adv-x="310" 
d="M250 -20q-38 0 -73 11t-62 32.5t-42.5 54.5t-15.5 77v424q0 40 16 74.5t43 60t62 40t73 14.5q23 0 32 -11t9 -26q0 -17 -8 -27.5t-21 -10.5q-38 0 -65.5 -17t-42 -43t-14.5 -54v-424q0 -41 19.5 -62.5t48 -29.5t54.5 -8q18 0 23.5 -12t5.5 -26q0 -16 -8.5 -26.5
t-33.5 -10.5z" />
    <glyph glyph-name="parenright" unicode=")" horiz-adv-x="310" 
d="M60 -20q-24 0 -33 10.5t-9 26.5q0 14 5.5 26t23.5 12q27 0 55 8t47.5 29.5t19.5 62.5v424q0 28 -14.5 54t-41.5 43t-66 17q-13 0 -21 10.5t-8 27.5q0 15 9 26t32 11q38 0 73 -14.5t62 -40t43 -60t16 -74.5v-424q0 -44 -15.5 -77t-42.5 -54.5t-62 -32.5t-73 -11z" />
    <glyph glyph-name="asterisk" unicode="*" horiz-adv-x="446" 
d="M128 366q-7 0 -16 3.5t-15.5 11t-6.5 16.5q0 11 8 20l76 103l-122 36q-10 3 -15 11.5t-5 18.5q0 13 9.5 23.5t23.5 10.5h3.5t5.5 -1l122 -42l-5 125q0 14 10 21.5t22 7.5q13 0 22.5 -7.5t9.5 -21.5l-4 -127l122 44q4 1 9 1q14 0 22.5 -11.5t8.5 -24.5q0 -9 -5 -17
t-15 -11l-121 -33l79 -107q5 -7 5 -17q0 -15 -11.5 -24t-24.5 -9q-5 0 -11.5 2t-11.5 10l-74 109l-74 -110q-4 -7 -9.5 -9t-11.5 -2z" />
    <glyph glyph-name="plus" unicode="+" horiz-adv-x="438" 
d="M220 95q-15 0 -26 8t-11 21v125h-124q-13 0 -21 10t-8 25q0 16 8 26t21 10h124v124q0 11 11 20.5t26 9.5q16 0 25.5 -9.5t9.5 -20.5v-124h124q11 0 20.5 -10t9.5 -26q0 -15 -9.5 -25t-20.5 -10h-124v-125q0 -13 -9.5 -21t-25.5 -8z" />
    <glyph glyph-name="comma" unicode="," horiz-adv-x="177" 
d="M75 -89q-10 0 -20 6.5t-10 17.5q0 6 3 11l20 52q-14 6 -23 19t-9 29q0 22 15 37.5t37 15.5q20 0 36 -14.5t16 -38.5q0 -3 -1 -8.5t-5 -17.5t-13 -34.5t-24 -60.5q-3 -7 -9.5 -10.5t-12.5 -3.5z" />
    <glyph glyph-name="hyphen" unicode="-" horiz-adv-x="403" 
d="M71 205q-12 0 -20.5 10t-8.5 25q0 16 8.5 26t20.5 10h260q12 0 21 -10t9 -26q0 -15 -9 -25t-21 -10h-260z" />
    <glyph glyph-name="period" unicode="." horiz-adv-x="176" 
d="M89 -6q-23 0 -38 16t-15 36q0 22 15 37.5t38 15.5q20 0 35.5 -15.5t15.5 -37.5q0 -20 -15.5 -36t-35.5 -16z" />
    <glyph glyph-name="slash" unicode="/" horiz-adv-x="477" 
d="M52 -30q-14 0 -23 9t-9 21q0 7 3 13l375 742q7 15 25 15q12 0 23 -9.5t11 -23.5q0 -7 -3 -14l-374 -737q-4 -8 -11.5 -12t-16.5 -4z" />
    <glyph glyph-name="zero" unicode="0" horiz-adv-x="540" 
d="M270 -6q-61 0 -109.5 21.5t-77 69t-28.5 127.5v301q0 80 28.5 127.5t77 69t109.5 21.5q60 0 109 -21.5t78 -69t29 -127.5v-301q0 -80 -29 -127.5t-78 -69t-109 -21.5zM270 70q61 0 96.5 34.5t35.5 107.5v301q0 73 -35 107.5t-97 34.5t-96.5 -34.5t-34.5 -107.5v-301
q0 -73 34.5 -107.5t96.5 -34.5zM270 322q-17 0 -28 11.5t-11 28.5t11 28t28 11q18 0 28.5 -11t10.5 -28t-10.5 -28.5t-28.5 -11.5z" />
    <glyph glyph-name="one" unicode="1" horiz-adv-x="249" 
d="M141 0q-16 0 -29 7.5t-13 22.5v576l-37 -55q-5 -6 -10.5 -8.5t-10.5 -2.5q-13 0 -21.5 11t-8.5 24q0 9 5.5 19.5t11.5 15.5l93 109q4 6 10 9.5t15 3.5q14 0 25.5 -7.5t11.5 -22.5v-672q0 -15 -13 -22.5t-29 -7.5z" />
    <glyph glyph-name="two" unicode="2" horiz-adv-x="483" 
d="M70 0q-12 0 -25 8t-13 22v97q0 41 24 75.5t62 66t80.5 61t80.5 61t62 66.5t24 76q0 29 -13 56.5t-40 45.5t-70 18q-47 0 -79.5 -27t-32.5 -82q0 -13 -11.5 -23t-32.5 -10q-18 0 -28 10.5t-10 38.5q0 51 26.5 89.5t71 60t97.5 21.5q58 0 104.5 -25t74 -69t27.5 -101
q0 -53 -24 -96t-61.5 -78t-80 -64.5t-80 -56.5t-61.5 -55t-24 -59v-51h308q12 0 20.5 -11t8.5 -27q0 -15 -8.5 -26.5t-20.5 -11.5h-356z" />
    <glyph glyph-name="three" unicode="3" horiz-adv-x="497" 
d="M240 -6q-55 0 -95.5 15.5t-67 40.5t-39 55t-12.5 59q0 24 9.5 31.5t29.5 7.5q26 0 35 -8.5t9 -24.5t7 -33.5t22 -32.5t40 -24.5t61 -9.5q67 0 100.5 33t33.5 105v19q0 65 -36.5 93.5t-96.5 28.5q-16 0 -22.5 11t-6.5 24t6.5 24t21.5 11q36 0 62 10t40 36.5t14 73.5
q0 61 -27.5 89t-84.5 28q-34 0 -57 -9t-36.5 -23.5t-18.5 -30.5t-5 -33q0 -16 -8.5 -26.5t-31.5 -10.5q-18 0 -27 4t-12.5 13.5t-3.5 25.5q0 23 9 51t31.5 54t62 43t99.5 17q56 0 99 -17t67.5 -55.5t24.5 -104.5t-22.5 -108.5t-58.5 -59.5q44 -18 73 -56t29 -103v-19
q0 -78 -29 -124.5t-78.5 -68t-109.5 -21.5z" />
    <glyph glyph-name="four" unicode="4" horiz-adv-x="460" 
d="M328 0q-16 0 -29 7.5t-13 22.5v138h-250q-15 0 -23 9t-8 24q0 5 1 10t4 9l246 487q7 13 17.5 18.5t20.5 5.5q9 0 18 -4t16.5 -11.5t7.5 -17.5q0 -6 -4 -14l-220 -436h174v168q0 15 13 22t29 7t29 -7t13 -22v-168h52q15 0 22.5 -12.5t7.5 -27.5t-8.5 -27.5t-21.5 -12.5
h-52v-138q0 -15 -13 -22.5t-29 -7.5z" />
    <glyph glyph-name="five" unicode="5" horiz-adv-x="484" 
d="M240 -6q-68 0 -117 24.5t-74 63.5t-25 85q0 23 11.5 31.5t30.5 8.5q24 0 33 -9.5t9 -24.5q0 -33 17.5 -56t47.5 -35t66 -12q62 0 97 34t35 106v19q0 69 -35 103t-96 34h-142q-23 0 -31 9.5t-8 23.5q0 6 0.5 11t1.5 11l21 280q2 14 7 22t15 8h288q14 0 20.5 -11.5
t6.5 -26.5q0 -14 -6.5 -26t-20.5 -12h-237l-15 -219h100q61 0 109.5 -20t77 -66t28.5 -121v-19q0 -79 -29 -126t-77.5 -68.5t-108.5 -21.5z" />
    <glyph glyph-name="six" unicode="6" horiz-adv-x="527" 
d="M271 -6q-61 0 -110 21.5t-77.5 69.5t-28.5 127v301q0 79 29 127t78.5 69.5t111.5 21.5q52 0 92 -15t66.5 -40t40 -56t13.5 -63q0 -21 -10 -29t-30 -8q-17 0 -30.5 7t-13.5 26q0 32 -17.5 54.5t-47 35t-65.5 12.5q-63 0 -98 -34.5t-35 -107.5v-140q25 33 63 47.5t83 14.5
q55 0 100.5 -18.5t73 -62.5t27.5 -121v-21q0 -79 -29 -127t-77.5 -69.5t-108.5 -21.5zM271 66q61 0 96 34.5t35 107.5v21q0 74 -35 105t-97 31q-60 0 -95.5 -29t-35.5 -98v-30q0 -73 35 -107.5t97 -34.5z" />
    <glyph glyph-name="seven" unicode="7" horiz-adv-x="470" 
d="M131 -2q-13 0 -25 5t-19.5 14t-7.5 21q0 8 5 17l288 543v57h-263v-105q0 -13 -13 -21.5t-30 -8.5q-16 0 -28.5 8.5t-12.5 21.5v151q0 11 11.5 20.5t26.5 9.5h355q12 0 25 -9.5t13 -20.5v-93q0 -9 -4 -21t-10 -22l-285 -553q-7 -14 -26 -14z" />
    <glyph glyph-name="eight" unicode="8" horiz-adv-x="511" 
d="M256 -6q-60 0 -109 20.5t-78 66t-29 119.5v12q0 77 31.5 122.5t80.5 64.5q-40 16 -65 54.5t-25 101.5q0 66 25.5 104.5t69.5 55t99 16.5q56 0 100 -16.5t69.5 -55t25.5 -104.5q0 -63 -25 -101.5t-66 -54.5q51 -19 81 -64.5t30 -122.5v-12q0 -74 -28.5 -119.5t-77 -66
t-109.5 -20.5zM257 66q61 0 95.5 35t34.5 107v16q0 71 -35 104.5t-96 33.5t-96.5 -33.5t-35.5 -104.5v-16q0 -73 35.5 -107.5t97.5 -34.5zM256 434q53 0 83 26.5t30 86.5t-30 86t-83 26t-83 -26t-30 -86t30 -86.5t83 -26.5z" />
    <glyph glyph-name="nine" unicode="9" horiz-adv-x="528" 
d="M254 -6q-53 0 -93 15t-66 40t-39.5 56t-13.5 63q0 21 10 29t29 8q17 0 30.5 -7t13.5 -26q0 -32 18 -54.5t47.5 -35t65.5 -12.5q63 0 98 34.5t35 107.5v140q-25 -32 -63.5 -47t-82.5 -15q-56 0 -101.5 18.5t-72.5 62.5t-27 121v21q0 79 28.5 127t77 69.5t109.5 21.5
t110 -21.5t77.5 -69.5t28.5 -127v-301q0 -79 -29 -127t-78.5 -69.5t-111.5 -21.5zM257 360q61 0 96.5 29.5t35.5 97.5v30q0 73 -35 107.5t-97 34.5t-96.5 -34.5t-34.5 -107.5v-21q0 -74 34.5 -105t96.5 -31z" />
    <glyph glyph-name="colon" unicode=":" horiz-adv-x="206" 
d="M103 317q-22 0 -37 16t-15 37t15 36.5t37 15.5q21 0 36.5 -15.5t15.5 -36.5t-15.5 -37t-36.5 -16zM103 -6q-22 0 -37 16t-15 36q0 22 15 37.5t37 15.5q21 0 36.5 -15.5t15.5 -37.5q0 -20 -15.5 -36t-36.5 -16z" />
    <glyph glyph-name="semicolon" unicode=";" horiz-adv-x="207" 
d="M89 -89q-10 0 -20 6.5t-10 17.5q0 6 2 11l21 52q-14 6 -23 19t-9 29q0 22 15 37.5t36 15.5t37 -14.5t16 -38.5q0 -3 -1 -8.5t-5.5 -17.5t-13 -34.5t-24.5 -60.5q-3 -7 -9 -10.5t-12 -3.5zM105 317q-23 0 -37.5 16t-14.5 37t14.5 36.5t37.5 15.5q21 0 36.5 -15.5
t15.5 -36.5t-15.5 -37t-36.5 -16z" />
    <glyph glyph-name="less" unicode="&#x3c;" horiz-adv-x="408" 
d="M324 65q-8 0 -13 4l-267 175q-9 5 -13.5 14.5t-4.5 18.5t4.5 18.5t13.5 15.5l267 175q5 4 13 4q13 0 25.5 -11t12.5 -29q0 -17 -12 -24l-226 -149l226 -148q12 -8 12 -25q0 -16 -12.5 -27.5t-25.5 -11.5z" />
    <glyph glyph-name="equal" unicode="=" horiz-adv-x="438" 
d="M92 349q-13 0 -21 10t-8 26q0 15 8 25.5t21 10.5h254q11 0 20.5 -10.5t9.5 -25.5q0 -16 -9.5 -26t-20.5 -10h-254zM92 146q-13 0 -21 10t-8 26q0 15 8 25.5t21 10.5h254q11 0 20.5 -10.5t9.5 -25.5q0 -16 -9.5 -26t-20.5 -10h-254z" />
    <glyph glyph-name="greater" unicode="&#x3e;" horiz-adv-x="408" 
d="M84 65q-13 0 -25.5 11.5t-12.5 27.5q0 17 12 25l225 148l-225 149q-12 7 -12 24q0 18 12.5 29t25.5 11q8 0 13 -4l267 -175q8 -6 13 -15.5t5 -18.5t-4.5 -18.5t-13.5 -14.5l-267 -175q-5 -4 -13 -4z" />
    <glyph glyph-name="question" unicode="?" horiz-adv-x="411" 
d="M177 175q-16 0 -24 8t-8 29q0 53 6.5 85.5t18 51.5t23.5 32q15 16 34.5 32.5t38 37t30.5 47t12 61.5q0 54 -33 85t-93 31q-34 0 -54.5 -8.5t-31.5 -19.5t-20 -19t-21 -8q-10 0 -21 8.5t-11 24.5q0 18 20.5 38.5t57 35t84.5 14.5q63 0 106 -23t65.5 -63t22.5 -89
q0 -45 -15 -78.5t-36.5 -60t-43 -45.5t-34.5 -34q-19 -18 -27 -38.5t-10 -46.5t-2 -61q0 -11 -7.5 -19t-26.5 -8zM178 -6q-23 0 -37.5 16t-14.5 36q0 22 15 37.5t37 15.5q21 0 36 -15.5t15 -37.5q0 -20 -15 -36t-36 -16z" />
    <glyph glyph-name="at" unicode="@" horiz-adv-x="725" 
d="M332 -111q-55 0 -105.5 19.5t-90 59t-62.5 101.5t-23 145q0 97 33.5 175.5t105 125t183.5 46.5q101 0 171 -38t106.5 -110.5t36.5 -176.5q0 -54 -12.5 -102.5t-40.5 -78t-75 -29.5q-39 0 -66 20t-34 47q-25 -28 -52.5 -43.5t-70.5 -15.5q-32 0 -61 11t-46.5 35.5
t-17.5 64.5q0 46 24.5 71t69 35t103.5 10h41v18q0 41 -22.5 60.5t-71.5 19.5q-32 0 -49.5 -6t-27.5 -12.5t-19 -6.5q-7 0 -12.5 6t-8.5 14t-3 14q0 15 20 27t50.5 19t60.5 7q44 0 77 -15t52 -43.5t19 -70.5v-167q3 -24 17.5 -36.5t32.5 -12.5q21 0 33.5 14.5t19.5 37.5
t9.5 49t2.5 49q0 132 -63 205.5t-194 73.5q-75 0 -125.5 -23t-80.5 -64.5t-43 -93.5t-13 -109q0 -53 11.5 -101.5t38 -87t71.5 -61t110 -22.5q43 0 70 7.5t43 15t26 7.5q11 0 17.5 -9.5t6.5 -16.5q0 -12 -16 -22.5t-42.5 -18.5t-56.5 -12.5t-57 -4.5zM348 85q31 0 54 13
t36 31.5t13 37.5v49h-36q-39 0 -69.5 -5.5t-47.5 -20.5t-17 -45q0 -31 19 -45.5t48 -14.5z" />
    <glyph glyph-name="A" unicode="A" horiz-adv-x="548" 
d="M67 0q-10 0 -22.5 4.5t-20 12.5t-7.5 18q0 4 1 8l205 665q4 15 19 22t32 7q18 0 33 -7.5t19 -21.5l204 -665q2 -4 2 -7q0 -10 -8.5 -18t-20.5 -13t-23 -5t-19 4.5t-11 14.5l-45 149h-263l-43 -149q-3 -10 -11.5 -14.5t-20.5 -4.5zM162 237h224l-112 376z" />
    <glyph glyph-name="B" unicode="B" horiz-adv-x="545" 
d="M109 0q-17 0 -27.5 8.5t-10.5 20.5v672q0 15 12 22.5t26 7.5h172q55 0 101.5 -13.5t74 -50.5t27.5 -107q0 -63 -23 -105t-62 -59q31 -12 54 -32.5t36 -53t13 -84.5v-18q0 -77 -26 -122.5t-71 -65.5t-101 -20h-195zM155 76h135q61 0 94.5 33t33.5 104v17q0 72 -33.5 101.5
t-94.5 29.5h-135v-285zM155 431h125q62 0 91 27.5t29 89.5q0 41 -15.5 64.5t-43 33t-64.5 9.5h-122v-224z" />
    <glyph glyph-name="C" unicode="C" horiz-adv-x="532" 
d="M278 -6q-58 0 -107 21.5t-78 69.5t-29 127v301q0 79 29.5 127t78.5 69.5t107 21.5q68 0 116 -23t74 -62.5t26 -88.5q0 -28 -10.5 -37t-31.5 -9q-20 0 -30.5 8t-11.5 21q-1 15 -5.5 34.5t-18 38t-39 30.5t-67.5 12q-64 0 -98.5 -34.5t-34.5 -107.5v-301q0 -73 35 -107.5
t101 -34.5q42 0 66.5 12t36.5 30t17 38.5t7 38.5q1 15 12 22t30 7q21 0 31.5 -9.5t10.5 -37.5q0 -49 -26.5 -89.5t-75 -64t-115.5 -23.5z" />
    <glyph glyph-name="D" unicode="D" horiz-adv-x="566" 
d="M109 0q-17 0 -27.5 8.5t-10.5 20.5v673q0 12 10.5 20.5t27.5 8.5h177q61 0 110 -21.5t77.5 -69t28.5 -127.5v-295q0 -80 -28.5 -127.5t-77.5 -69t-110 -21.5h-177zM155 76h131q62 0 97 34.5t35 107.5v295q0 73 -35 107.5t-97 34.5h-131v-579z" />
    <glyph glyph-name="E" unicode="E" horiz-adv-x="514" 
d="M109 0q-14 0 -26 7.5t-12 22.5v671q0 15 12 22.5t26 7.5h356q16 0 22.5 -12t6.5 -25q0 -15 -7.5 -27t-21.5 -12h-310v-254h156q14 0 21.5 -11t7.5 -25q0 -12 -6.5 -23t-22.5 -11h-156v-255h310q14 0 21.5 -11.5t7.5 -27.5q0 -13 -6.5 -25t-22.5 -12h-356z" />
    <glyph glyph-name="F" unicode="F" horiz-adv-x="499" 
d="M113 0q-15 0 -28.5 7t-13.5 22v672q0 15 12 22.5t26 7.5h353q15 0 22 -12t7 -25q0 -15 -7.5 -27t-21.5 -12h-307v-254h157q14 0 21.5 -11t7.5 -25q0 -12 -7 -23t-22 -11h-157v-302q0 -15 -13 -22t-29 -7z" />
    <glyph glyph-name="G" unicode="G" horiz-adv-x="548" 
d="M279 -6q-61 0 -109.5 21.5t-77 69.5t-28.5 127v301q0 79 28.5 127t77 69.5t107.5 21.5q66 0 114.5 -22.5t76 -62.5t27.5 -94q0 -24 -11 -32.5t-31 -8.5q-17 0 -29 6.5t-13 22.5q-4 35 -18 60.5t-42 40t-72 14.5q-62 0 -96.5 -34.5t-34.5 -107.5v-301q0 -73 34.5 -107.5
t96.5 -34.5t97 34.5t35 107.5v102h-119q-14 0 -21.5 11t-7.5 24t7.5 24t21.5 11h174q14 0 21.5 -9t7.5 -22v-141q0 -79 -28.5 -127t-77.5 -69.5t-110 -21.5z" />
    <glyph glyph-name="H" unicode="H" horiz-adv-x="582" 
d="M113 0q-15 0 -28.5 7.5t-13.5 22.5v672q0 15 13.5 22t28.5 7q16 0 29 -7t13 -22v-288h271v288q0 15 13.5 22t28.5 7q16 0 29 -7t13 -22v-672q0 -15 -13 -22.5t-29 -7.5q-15 0 -28.5 7.5t-13.5 22.5v314h-271v-314q0 -15 -13 -22.5t-29 -7.5z" />
    <glyph glyph-name="I" unicode="I" horiz-adv-x="227" 
d="M113 0q-15 0 -28.5 7.5t-13.5 22.5v672q0 15 13.5 22t28.5 7q16 0 29 -7t13 -22v-672q0 -15 -13 -22.5t-29 -7.5z" />
    <glyph glyph-name="J" unicode="J" horiz-adv-x="517" 
d="M236 -6q-65 0 -114 23t-76.5 64.5t-27.5 95.5q0 24 11 32.5t31 8.5q16 0 28.5 -6.5t13.5 -22.5q1 -34 16 -61.5t44 -42.5t71 -15q63 0 97.5 34.5t34.5 107.5v443h-130q-14 0 -21.5 12t-7.5 27q0 13 6.5 25t22.5 12h176q15 0 26.5 -7.5t11.5 -22.5v-489q0 -79 -28.5 -127
t-77 -69.5t-107.5 -21.5z" />
    <glyph glyph-name="K" unicode="K" horiz-adv-x="531" 
d="M113 0q-15 0 -28.5 7.5t-13.5 22.5v672q0 15 13.5 22t28.5 7q16 0 29 -7t13 -22v-331l269 348q9 12 25 12q11 0 22 -6.5t18 -16t7 -20.5q0 -4 -1 -9t-5 -9l-204 -255l237 -360q5 -7 5 -15q0 -11 -7 -20.5t-18 -15.5t-24 -6q-8 0 -16 4t-14 13l-219 329l-75 -93v-221
q0 -15 -13 -22.5t-29 -7.5z" />
    <glyph glyph-name="L" unicode="L" horiz-adv-x="468" 
d="M109 0q-14 0 -26 7.5t-12 22.5v672q0 15 13.5 22t28.5 7q16 0 29 -7t13 -22v-626h274q14 0 20.5 -11.5t6.5 -26.5q0 -14 -6.5 -26t-20.5 -12h-320z" />
    <glyph glyph-name="M" unicode="M" horiz-adv-x="677" 
d="M113 0q-15 0 -28.5 7.5t-13.5 22.5v660q0 23 13.5 32t28.5 9q16 0 27.5 -6t21 -17.5t18.5 -29.5l158 -301l158 301q10 18 19.5 29.5t21 17.5t26.5 6q17 0 29.5 -9t12.5 -32v-660q0 -15 -13 -22.5t-29 -7.5t-29 7.5t-13 22.5v525l-152 -284q-7 -12 -15 -17.5t-17 -5.5
q-7 0 -15.5 5t-15.5 18l-151 288v-529q0 -15 -13 -22.5t-29 -7.5z" />
    <glyph glyph-name="N" unicode="N" horiz-adv-x="582" 
d="M113 0q-15 0 -28.5 7.5t-13.5 22.5v672q0 16 13.5 22.5t28.5 6.5q16 0 27 -6t20 -17.5t18 -29.5l248 -487v511q0 15 13.5 22t28.5 7q16 0 29 -7t13 -22v-672q0 -15 -13 -22.5t-29 -7.5t-29.5 11t-22.5 27l-261 503v-511q0 -15 -13 -22.5t-29 -7.5z" />
    <glyph glyph-name="O" unicode="O" horiz-adv-x="559" 
d="M279 -6q-61 0 -109.5 21.5t-77 69t-28.5 127.5v301q0 80 28.5 127.5t77 69t109.5 21.5t110 -21.5t77.5 -69t28.5 -127.5v-301q0 -80 -28.5 -127.5t-77.5 -69t-110 -21.5zM279 70q62 0 97 34.5t35 107.5v301q0 73 -35 107.5t-97 34.5t-96.5 -34.5t-34.5 -107.5v-301
q0 -73 34.5 -107.5t96.5 -34.5z" />
    <glyph glyph-name="P" unicode="P" horiz-adv-x="535" 
d="M113 0q-15 0 -28.5 7.5t-13.5 22.5v672q0 12 9.5 20t24.5 9h189q60 0 108 -21.5t76 -68.5t28 -126v-9q0 -78 -28.5 -126t-77.5 -69.5t-110 -21.5h-135v-259q0 -15 -13 -22.5t-29 -7.5zM155 359h135q62 0 97 35t35 107v12q0 73 -35 107.5t-97 34.5h-135v-296z" />
    <glyph glyph-name="Q" unicode="Q" horiz-adv-x="559" 
d="M280 -109q-12 0 -21 7.5t-9 22.5v75q-54 4 -96 27t-66 69.5t-24 119.5v301q0 80 28.5 127.5t77 69t109.5 21.5t110 -21.5t77.5 -69t28.5 -127.5v-301q0 -73 -24 -119.5t-66 -69.5t-95 -27v-75q0 -15 -9.5 -22.5t-20.5 -7.5zM250 74v68q0 15 9 22t21 7q11 0 20.5 -7
t9.5 -22v-67q47 7 74 40.5t27 96.5v301q0 73 -35 107.5t-97 34.5t-96.5 -34.5t-34.5 -107.5v-301q0 -63 26.5 -97t75.5 -41z" />
    <glyph glyph-name="R" unicode="R" horiz-adv-x="539" 
d="M459 -2q-12 0 -21.5 10t-16.5 23l-150 293h-116v-294q0 -15 -13 -22.5t-29 -7.5q-15 0 -28.5 7.5t-13.5 22.5v672q0 12 8.5 20t21.5 9h183q61 0 111.5 -18.5t80.5 -62t30 -119.5q0 -61 -19.5 -101t-53.5 -62.5t-76 -31.5l148 -281q2 -4 3 -7.5t1 -6.5q0 -11 -7.5 -21
t-19 -16t-23.5 -6zM155 394h129q62 0 100 30t38 101t-38 100.5t-100 29.5h-129v-261z" />
    <glyph glyph-name="S" unicode="S" horiz-adv-x="502" 
d="M245 -8q-64 0 -112 19.5t-74 46t-26 47.5q0 10 5.5 20.5t14 18t17.5 7.5q12 0 23.5 -12t29 -28.5t45.5 -28.5t73 -12q42 0 73 13.5t48.5 41t17.5 69.5q0 43 -18 70t-47.5 45t-64 32t-70 28.5t-64.5 36t-47 55.5t-18 86q0 55 20 91t53 57t71.5 29.5t75.5 8.5q27 0 57 -4
t57 -12t44 -20.5t17 -29.5q0 -8 -4 -18.5t-12 -19t-20 -8.5q-11 0 -27 9.5t-42.5 19t-69.5 9.5q-36 0 -67.5 -10t-50 -33t-18.5 -61q0 -36 18 -59t47 -38t64 -27.5t70 -29t64.5 -40.5t47.5 -62.5t18 -96.5q0 -72 -28.5 -118.5t-77.5 -69t-113 -22.5z" />
    <glyph glyph-name="T" unicode="T" horiz-adv-x="490" 
d="M245 0q-16 0 -29 7.5t-13 22.5v623h-162q-13 0 -21 12t-8 28q0 14 7 26t22 12h408q15 0 22 -12t7 -26q0 -15 -7 -27.5t-22 -12.5h-162v-623q0 -15 -13 -22.5t-29 -7.5z" />
    <glyph glyph-name="U" unicode="U" horiz-adv-x="572" 
d="M286 -6q-62 0 -111 21.5t-78 69t-29 127.5v490q0 15 12.5 22t29.5 7q16 0 29 -7t13 -22v-490q0 -73 35 -107.5t99 -34.5q63 0 98.5 34.5t35.5 107.5v490q0 15 13 22t29 7t29 -7t13 -22v-490q0 -80 -29 -127.5t-78.5 -69t-110.5 -21.5z" />
    <glyph glyph-name="V" unicode="V" horiz-adv-x="547" 
d="M274 -6q-17 0 -32 7.5t-20 21.5l-205 665q-1 4 -1 8q0 10 8 18t20 12.5t23 4.5t19.5 -4.5t11.5 -14.5l176 -594l175 594q3 10 11 14.5t19 4.5q12 0 24 -5t20 -12.5t8 -18.5q0 -1 -0.5 -3t-0.5 -4l-204 -665q-4 -14 -19 -21.5t-33 -7.5z" />
    <glyph glyph-name="W" unicode="W" horiz-adv-x="811" 
d="M268 -6q-17 0 -32.5 7.5t-19.5 21.5l-198 665q-1 4 -1 9q0 10 8 17.5t19.5 12t22.5 4.5t20.5 -4.5t11.5 -14.5l169 -594l95 366q4 14 16.5 20t26.5 6q15 0 27 -6t15 -20l96 -366l169 594q3 10 11.5 14.5t19.5 4.5q12 0 23.5 -4.5t19.5 -12t8 -17.5q0 -5 -2 -9l-196 -665
q-5 -14 -20 -21.5t-33 -7.5q-17 0 -32.5 7.5t-18.5 21.5l-87 330l-86 -330q-4 -14 -19 -21.5t-33 -7.5z" />
    <glyph glyph-name="X" unicode="X" horiz-adv-x="504" 
d="M72 -2q-11 0 -23 5.5t-20.5 15t-8.5 20.5q0 8 5 18l173 309l-169 307q-7 12 -7 22q0 12 8 20.5t19.5 13t24.5 4.5t22 -9.5t14 -22.5l142 -266l142 266q6 13 15 22.5t22 9.5q12 0 24 -4.5t19.5 -13t7.5 -20.5q0 -10 -7 -22l-169 -307l173 -309q5 -10 5 -18q0 -11 -8 -20.5
t-20 -15t-24 -5.5q-11 0 -19 9t-13 19l-148 273l-147 -273q-5 -10 -13 -19t-20 -9z" />
    <glyph glyph-name="Y" unicode="Y" horiz-adv-x="541" 
d="M270 0q-15 0 -28.5 7.5t-13.5 22.5v253q0 6 -2 10l-207 386q-2 5 -3 9.5t-1 7.5q0 10 8 18t19.5 12.5t22.5 4.5t17.5 -5.5t12.5 -16.5l175 -343l176 343q6 11 13 16.5t17 5.5q11 0 22.5 -4.5t19.5 -12.5t8 -18q0 -3 -1 -7.5t-3 -9.5l-207 -386q-3 -4 -3 -10v-253
q0 -15 -13 -22.5t-29 -7.5z" />
    <glyph glyph-name="Z" unicode="Z" horiz-adv-x="493" 
d="M49 0q-14 0 -21.5 7.5t-7.5 19.5q0 14 8 29l323 599h-288q-14 0 -21.5 11.5t-7.5 26.5q0 14 7 26t22 12h368q14 0 21.5 -7t7.5 -18q0 -15 -10 -32l-322 -598h316q15 0 22.5 -12t7.5 -26t-7.5 -26t-22.5 -12h-395z" />
    <glyph glyph-name="bracketleft" unicode="[" horiz-adv-x="313" 
d="M102 -21q-14 0 -26 8t-12 21v731q0 13 12 21t26 8h164q15 0 22 -11.5t7 -25.5q0 -15 -7.5 -26.5t-21.5 -11.5h-118v-639h118q14 0 21.5 -11t7.5 -27q0 -14 -7 -25.5t-22 -11.5h-164z" />
    <glyph glyph-name="backslash" unicode="\" horiz-adv-x="357" 
d="M300 0q-9 0 -17 5t-11 15l-246 692q-2 5 -2 11q0 13 10 22t24 9q9 0 16 -4t10 -13l248 -698q1 -2 1 -4v-5q0 -12 -9.5 -21t-23.5 -9z" />
    <glyph glyph-name="bracketright" unicode="]" horiz-adv-x="313" 
d="M47 -21q-15 0 -22 11.5t-7 25.5q0 16 8 27t21 11h118v639h-118q-13 0 -21 11.5t-8 26.5q0 14 7 25.5t22 11.5h164q15 0 26.5 -8t11.5 -21v-731q0 -13 -12 -21t-26 -8h-164z" />
    <glyph glyph-name="asciicircum" unicode="^" horiz-adv-x="273" 
d="M23 588q-9 0 -16 9t-7 20q0 8 4 15t11 11l104 56q9 5 17 5q9 0 17 -5l104 -55q9 -4 12.5 -12t3.5 -16q0 -11 -6.5 -19.5t-16.5 -8.5q-2 0 -4.5 1t-5.5 2l-104 56l-104 -56q-2 -1 -4.5 -2t-4.5 -1z" />
    <glyph glyph-name="underscore" unicode="_" horiz-adv-x="329" 
d="M5 -72q-13 0 -21 10t-8 26q0 15 8 25.5t21 10.5h320q11 0 20.5 -10.5t9.5 -25.5q0 -16 -9.5 -26t-20.5 -10h-320z" />
    <glyph glyph-name="grave" unicode="`" horiz-adv-x="168" 
d="M138 584q-2 0 -5 1.5t-6 2.5l-113 58q-14 8 -14 24q0 13 8 23.5t20 10.5q5 0 10 -2l117 -62q13 -6 13 -22q0 -12 -8.5 -23t-21.5 -11z" />
    <glyph glyph-name="a" unicode="a" horiz-adv-x="447" 
d="M163 -8q-56 0 -95.5 32.5t-39.5 100.5q0 55 30 85.5t82.5 42t121.5 11.5h48v21q0 30 -11 58.5t-34.5 47t-64.5 18.5q-35 0 -55.5 -7t-32.5 -14.5t-21 -7.5q-15 0 -23 14.5t-8 27.5q0 16 22 29t55 21t65 8q70 0 112 -28t60.5 -72t18.5 -94v-256q0 -12 -11.5 -21t-29.5 -9
q-16 0 -27 9t-11 21v40q-26 -30 -63 -54t-88 -24zM189 59q29 0 56.5 16t46 40t18.5 46v52h-35q-42 0 -79.5 -5t-60.5 -21.5t-23 -52.5q0 -39 22 -57t55 -18z" />
    <glyph glyph-name="b" unicode="b" horiz-adv-x="494" 
d="M276 -8q-46 0 -83.5 23.5t-53.5 54.5v-40q0 -11 -11 -20.5t-28 -9.5t-28.5 9.5t-11.5 20.5v701q0 13 11.5 21t28.5 8q18 0 30.5 -8t12.5 -21v-327q16 29 49.5 52.5t81.5 23.5q49 0 89.5 -26.5t65 -69.5t24.5 -96v-102q0 -50 -24.5 -94.5t-64.5 -72t-88 -27.5zM256 67
q31 0 57 17t41.5 45t15.5 57v102q0 29 -15.5 56t-41.5 44t-58 17q-27 0 -53 -14.5t-42.5 -40t-16.5 -62.5v-129q0 -13 15 -35t41 -39.5t57 -17.5z" />
    <glyph glyph-name="c" unicode="c" horiz-adv-x="418" 
d="M243 -8q-69 0 -113.5 26t-66 69.5t-21.5 98.5v100q0 54 21.5 98t66 70t112.5 26q44 0 77 -11t51 -27t18 -31q0 -8 -4.5 -17.5t-12 -16.5t-17.5 -7t-21.5 9t-31 17.5t-54.5 8.5q-61 0 -91.5 -32t-30.5 -87v-100q0 -55 30.5 -87t92.5 -32q36 0 56 9.5t31.5 18t22.5 8.5
t19 -6.5t12.5 -15.5t4.5 -18q0 -15 -19 -31.5t-53 -28t-79 -11.5z" />
    <glyph glyph-name="d" unicode="d" horiz-adv-x="494" 
d="M218 -8q-47 0 -87.5 27.5t-65 72t-24.5 94.5v102q0 53 24.5 96t65 69.5t89.5 26.5q48 0 81.5 -23.5t49.5 -52.5v327q0 13 12.5 21t30.5 8t29 -8t11 -21v-701q0 -11 -11 -20.5t-29 -9.5q-16 0 -27.5 9.5t-11.5 20.5v40q-15 -31 -53 -54.5t-84 -23.5zM238 67
q32 0 57.5 17.5t40.5 39.5t15 35v129q0 37 -16.5 62.5t-42.5 40t-53 14.5q-32 0 -58 -17t-41.5 -44t-15.5 -56v-102q0 -29 15.5 -57t41.5 -45t57 -17z" />
    <glyph glyph-name="e" unicode="e" horiz-adv-x="465" 
d="M264 -8q-65 0 -115 24.5t-79 68t-29 101.5v105q0 51 27.5 94t72.5 69t99 26q52 0 95.5 -24t70 -65t26.5 -95q0 -40 -13 -57.5t-33 -21.5t-42 -4h-220v-30q0 -56 40 -88.5t103 -32.5q37 0 59 10t36 19.5t25 9.5t18.5 -6.5t11.5 -15.5t4 -16q0 -13 -19 -29.5t-54.5 -29
t-83.5 -12.5zM124 269h185q27 0 35.5 6.5t8.5 25.5q0 30 -14.5 55.5t-40.5 41.5t-59 16q-31 0 -57 -14.5t-42 -39.5t-16 -55v-36z" />
    <glyph glyph-name="f" unicode="f" horiz-adv-x="315" 
d="M100 0q-17 0 -28.5 8t-11.5 21v544q0 52 24 94.5t64.5 67.5t88.5 25h35q16 0 25 -11t9 -26q0 -14 -9 -25t-25 -11h-21q-31 0 -55.5 -14.5t-38.5 -39t-14 -53.5v-106h137q12 0 19 -10t7 -23q0 -12 -7 -22t-19 -10h-137v-380q0 -13 -13 -21t-30 -8z" />
    <glyph glyph-name="g" unicode="g" horiz-adv-x="459" 
d="M232 -229q-59 0 -106 16.5t-74.5 47t-27.5 71.5q0 42 24.5 68.5t56.5 40.5q-22 8 -36.5 23.5t-14.5 43.5t14 44.5t36 29.5q-27 22 -42 54.5t-15 71.5v33q0 49 22 86t62.5 58t94.5 21q35 0 64.5 -10.5t51.5 -28.5q16 33 33.5 49t34.5 16q18 0 27 -10t9 -21q0 -8 -5 -14
t-12 -9q-11 -3 -25.5 -12t-27.5 -30q15 -19 22.5 -43.5t7.5 -51.5v-33q0 -47 -23 -85t-64 -59.5t-94 -21.5q-41 0 -73 15q-10 -6 -18 -13.5t-8 -20.5q0 -21 22.5 -30t57.5 -13t74 -9t74 -17.5t57.5 -38.5t22.5 -72q0 -49 -27 -81.5t-72.5 -48.5t-102.5 -16zM230 -171
q57 0 90 23.5t33 62.5q0 28 -17 43.5t-44 23t-56.5 10t-53.5 5.5q-32 -10 -55.5 -30t-23.5 -52q0 -39 35 -62.5t92 -23.5zM227 173q46 0 72 31t26 78v33q0 46 -26 77t-73 31t-72.5 -31t-25.5 -77v-32q0 -47 26 -78.5t73 -31.5z" />
    <glyph glyph-name="h" unicode="h" horiz-adv-x="503" 
d="M101 0q-18 0 -29.5 9.5t-11.5 20.5v701q0 13 11.5 21t29.5 8q17 0 29.5 -8t12.5 -21v-327q16 29 48.5 52.5t81.5 23.5q48 0 88 -26.5t64 -69.5t24 -96v-258q0 -15 -13 -22.5t-29 -7.5q-15 0 -28 7.5t-13 22.5v258q0 29 -16 56t-41.5 44t-56.5 17q-27 0 -52 -14.5t-41 -40
t-16 -62.5v-258q0 -11 -12.5 -20.5t-29.5 -9.5z" />
    <glyph glyph-name="i" unicode="i" horiz-adv-x="200" 
d="M100 604q-21 0 -36.5 14.5t-15.5 33.5t15.5 33t36.5 14q22 0 36.5 -14t14.5 -33t-14.5 -33.5t-36.5 -14.5zM100 0q-18 0 -29.5 9.5t-11.5 20.5v415q0 13 11.5 21t29.5 8q17 0 29.5 -8t12.5 -21v-415q0 -11 -12.5 -20.5t-29.5 -9.5z" />
    <glyph glyph-name="j" unicode="j" horiz-adv-x="202" 
d="M6 -229q-24 0 -34 11.5t-10 24.5q0 17 10.5 27t23.5 10q29 0 42.5 15t17 41.5t3.5 59.5v485q0 13 12 21t29 8q18 0 30 -8t12 -21v-485q0 -55 -14 -98t-44 -67t-78 -24zM100 604q-21 0 -36.5 14.5t-15.5 33.5t15.5 33t36.5 14q22 0 36.5 -14t14.5 -33t-14.5 -33.5
t-36.5 -14.5z" />
    <glyph glyph-name="k" unicode="k" horiz-adv-x="466" 
d="M100 0q-17 0 -28.5 9.5t-11.5 20.5v701q0 13 11.5 21t28.5 8q18 0 30.5 -8t12.5 -21v-468l228 206q9 7 18 7q10 0 19.5 -5.5t16 -14.5t6.5 -19q0 -5 -2 -10.5t-7 -9.5l-139 -123l166 -241q5 -7 5 -15q0 -10 -7 -20t-17.5 -16t-21.5 -6q-14 0 -23 13l-159 233l-83 -74
v-138q0 -11 -12.5 -20.5t-30.5 -9.5z" />
    <glyph glyph-name="l" unicode="l" horiz-adv-x="219" 
d="M109 0q-18 0 -29.5 9.5t-11.5 20.5v701q0 13 11.5 21t29.5 8q17 0 29.5 -8t12.5 -21v-701q0 -11 -12.5 -20.5t-29.5 -9.5z" />
    <glyph glyph-name="m" unicode="m" horiz-adv-x="785" 
d="M100 0q-18 0 -29.5 9.5t-11.5 20.5v415q0 13 11.5 21t29.5 8q16 0 27 -8t11 -21v-41q17 29 50 52.5t83 23.5q48 0 84 -28t53 -72q26 51 67 75.5t84 24.5q44 0 83.5 -22.5t64 -65.5t24.5 -104v-258q0 -11 -12.5 -20.5t-29.5 -9.5t-29 9.5t-12 20.5v258q0 38 -15.5 64
t-40 39.5t-49.5 13.5q-27 0 -51 -14t-40 -39t-16 -61v-262q0 -15 -13 -22t-29 -7q-14 0 -27.5 7t-13.5 22v261q0 34 -14.5 60t-38 40.5t-51.5 14.5q-27 0 -51.5 -14t-40 -39.5t-15.5 -63.5v-258q0 -11 -12.5 -20.5t-29.5 -9.5z" />
    <glyph glyph-name="n" unicode="n" horiz-adv-x="502" 
d="M100 0q-18 0 -29.5 9.5t-11.5 20.5v415q0 13 11.5 21t29.5 8q16 0 27 -8t11 -21v-41q16 29 50 52.5t84 23.5q48 0 88 -26.5t64 -69.5t24 -96v-258q0 -15 -13 -22.5t-29 -7.5q-15 0 -28 7.5t-13 22.5v258q0 29 -15.5 56t-41.5 44t-57 17q-27 0 -52 -14.5t-41 -40
t-16 -62.5v-258q0 -11 -12.5 -20.5t-29.5 -9.5z" />
    <glyph glyph-name="o" unicode="o" horiz-adv-x="477" 
d="M238 -8q-53 0 -98 27.5t-72 71.5t-27 95v102q0 51 26.5 94.5t71.5 70.5t99 27q53 0 98 -26.5t72.5 -69.5t27.5 -96v-102q0 -50 -27.5 -94.5t-72.5 -72t-98 -27.5zM238 67q32 0 57.5 17t41.5 44.5t16 57.5v102q0 29 -15.5 56t-41.5 44t-58 17t-58 -17t-41 -44t-15 -56
v-102q0 -30 15 -57.5t41 -44.5t58 -17z" />
    <glyph glyph-name="p" unicode="p" horiz-adv-x="494" 
d="M100 -229q-17 0 -28.5 9.5t-11.5 20.5v644q0 13 11.5 21t28.5 8t28 -8t11 -21v-41q17 29 51 52.5t83 23.5q50 0 91 -26.5t65 -69.5t24 -96v-102q0 -50 -24.5 -94.5t-64.5 -72t-88 -27.5q-45 0 -81 23.5t-52 54.5v-269q0 -11 -12.5 -20.5t-30.5 -9.5zM256 67q30 0 56 17
t42 45t16 57v102q0 29 -16 56t-42 44t-58 17q-27 0 -52.5 -14.5t-42 -40t-16.5 -62.5v-129q0 -13 14.5 -35t40 -39.5t58.5 -17.5z" />
    <glyph glyph-name="q" unicode="q" horiz-adv-x="494" 
d="M394 -229q-18 0 -30.5 9.5t-12.5 20.5v269q-15 -31 -51.5 -54.5t-81.5 -23.5q-47 0 -87.5 27.5t-65 72t-24.5 94.5v102q0 53 24 96t65 69.5t91 26.5q49 0 83.5 -23.5t50.5 -52.5v41q0 13 11.5 21t27.5 8q18 0 29 -8t11 -21v-644q0 -11 -11 -20.5t-29 -9.5zM238 67
q33 0 58.5 17.5t40 39.5t14.5 35v129q0 37 -16 62.5t-42 40t-53 14.5q-32 0 -58 -17t-42 -44t-16 -56v-102q0 -29 16 -57t42 -45t56 -17z" />
    <glyph glyph-name="r" unicode="r" horiz-adv-x="342" 
d="M99 0q-17 0 -28.5 9.5t-11.5 20.5v415q0 13 11.5 21t28.5 8t28 -8t11 -21v-47q11 21 30 39.5t44.5 30.5t56.5 12h34q13 0 22.5 -11t9.5 -27q0 -15 -9.5 -26t-22.5 -11h-34q-32 0 -61 -18t-47.5 -50.5t-18.5 -78.5v-228q0 -11 -12.5 -20.5t-30.5 -9.5z" />
    <glyph glyph-name="s" unicode="s" horiz-adv-x="395" 
d="M195 -8q-48 0 -85 12.5t-58 29.5t-21 34q0 8 4 16.5t10.5 15t14.5 6.5q12 0 26 -11.5t38 -23.5t69 -12q53 0 74 19.5t21 43.5q0 31 -18 47.5t-46 26t-59 18.5t-59 22.5t-45.5 38t-17.5 65.5q0 33 16 65t52 53.5t96 21.5q35 0 67.5 -7.5t53 -20t20.5 -26.5q0 -6 -4 -16
t-11 -18t-18 -8q-8 0 -22.5 7.5t-35 14.5t-49.5 7q-33 0 -53 -11.5t-29 -27t-9 -31.5q0 -25 17.5 -39t46 -22.5t59.5 -17t59 -24t46 -42.5t18 -72q0 -61 -44 -97.5t-124 -36.5z" />
    <glyph glyph-name="t" unicode="t" horiz-adv-x="309" 
d="M223 0q-81 0 -123.5 36t-42.5 115v515q0 13 13 21t28 8q16 0 29 -8t13 -21v-192h126q12 0 18.5 -10t6.5 -23t-6.5 -22.5t-18.5 -9.5h-126v-258q0 -43 18.5 -60.5t64.5 -17.5h31q18 0 27 -11t9 -25t-9 -25.5t-27 -11.5h-31z" />
    <glyph glyph-name="u" unicode="u" horiz-adv-x="504" 
d="M253 -8q-55 0 -100 27t-72 71t-27 94v260q0 11 12.5 20.5t29.5 9.5t29 -9.5t12 -20.5v-260q0 -29 15.5 -56t41.5 -44t58 -17t58 17t41 44t15 56v261q0 12 13 20.5t29 8.5q19 0 30 -8.5t11 -20.5v-261q0 -51 -26.5 -94.5t-71.5 -70.5t-98 -27z" />
    <glyph glyph-name="v" unicode="v" horiz-adv-x="436" 
d="M218 -9q-13 0 -23.5 4.5t-14.5 13.5l-164 415q-1 2 -2.5 7t-1.5 9q0 10 8.5 18.5t21 13t23.5 4.5q8 0 16 -4t11 -12l126 -340l126 336q3 9 9.5 14.5t17.5 5.5q10 0 22 -4.5t22 -13t10 -18.5q0 -5 -1.5 -9t-2.5 -7l-164 -415q-4 -8 -15 -13t-24 -5z" />
    <glyph glyph-name="w" unicode="w" horiz-adv-x="673" 
d="M206 -9q-12 0 -20.5 4.5t-13.5 16.5l-155 412q-2 5 -3.5 9.5t-1.5 6.5q0 11 8.5 19t20.5 12.5t23 4.5q9 0 16.5 -4t10.5 -12l120 -336l95 303q4 11 12 15.5t19 4.5t19.5 -4.5t11.5 -15.5l93 -306l122 339q5 16 26 16q11 0 23 -4.5t20.5 -12.5t8.5 -19q0 -3 -1.5 -8
t-2.5 -8l-156 -415q-4 -10 -13 -14t-20 -4q-13 0 -21.5 4.5t-12.5 13.5l-97 294l-95 -291q-4 -10 -14 -15.5t-22 -5.5z" />
    <glyph glyph-name="x" unicode="x" horiz-adv-x="426" 
d="M74 -8q-9 0 -21 6.5t-21 16t-9 18.5t6 17l128 190l-124 182q-2 3 -4 7.5t-2 8.5q0 10 9 19.5t21 16t23 6.5q5 0 11.5 -2.5t10.5 -9.5l111 -172l112 172q3 6 9.5 9t12.5 3q10 0 22.5 -6t21 -16t8.5 -20q0 -7 -6 -16l-125 -182l130 -190q2 -3 3.5 -7.5t1.5 -9.5
q0 -8 -8.5 -18t-20 -16.5t-23.5 -6.5q-6 0 -12 3t-10 9l-116 177l-115 -177q-4 -6 -11 -9t-13 -3z" />
    <glyph glyph-name="y" unicode="y" horiz-adv-x="435" 
d="M50 -229q-16 0 -27 7.5t-11 29.5q0 14 5.5 25t18.5 11q22 0 44 12.5t42.5 37t35.5 57.5t22 73l-166 405q-3 6 -3 11q0 11 9 20t21.5 14.5t23.5 5.5q8 0 16 -4t10 -13l133 -348l119 348q3 9 10.5 13t15.5 4q10 0 22.5 -5.5t21.5 -14.5t9 -21q0 -6 -2 -10l-153 -407
q-15 -41 -32 -85t-40.5 -81.5t-58.5 -61t-86 -23.5z" />
    <glyph glyph-name="z" unicode="z" horiz-adv-x="410" 
d="M54 0q-15 0 -23 9.5t-8 21.5q0 9 4 18t9 15l231 339h-207q-11 0 -19.5 10t-8.5 25t8 25.5t20 10.5h286q12 0 21 -8t9 -24t-12 -32l-232 -339h229q12 0 20 -10.5t8 -25.5q0 -14 -8 -24.5t-20 -10.5h-307z" />
    <glyph glyph-name="braceleft" unicode="{" horiz-adv-x="323" 
d="M260 -20q-50 0 -93.5 19.5t-70.5 54.5t-27 81q0 10 1.5 30.5t4.5 46t6 50t4.5 42.5t1.5 25q0 13 -9 17t-21 6t-21 8.5t-9 24.5t9 24.5t21 8.5t21 6t9 17q0 7 -2.5 28.5t-6.5 47.5t-6.5 49.5t-2.5 34.5q0 33 15.5 63t42.5 53.5t62 37t72 13.5q25 0 35 -12t10 -25
t-7.5 -24.5t-21.5 -11.5q-30 0 -59 -13.5t-47 -36.5t-18 -54q0 -11 2.5 -33.5t6.5 -48.5t6.5 -47t2.5 -29q0 -19 -13 -33t-22 -16q10 -3 22.5 -16t12.5 -32q0 -9 -2.5 -35.5t-6.5 -59t-6.5 -60.5t-2.5 -39q0 -26 13 -43.5t33.5 -27.5t41.5 -14t36 -4q12 0 18 -6t8.5 -14
t2.5 -16q0 -18 -12 -27.5t-34 -9.5z" />
    <glyph glyph-name="bar" unicode="|" horiz-adv-x="212" 
d="M106 -21q-18 0 -30 9t-12 20v731q0 13 12 21t30 8q17 0 29.5 -8t12.5 -21v-731q0 -11 -12.5 -20t-29.5 -9z" />
    <glyph glyph-name="braceright" unicode="}" horiz-adv-x="323" 
d="M63 -20q-21 0 -33.5 9.5t-12.5 27.5q0 8 2.5 16t8.5 14t18 6q15 0 36 4t41.5 14t33.5 27.5t13 43.5q0 11 -2.5 39t-6.5 60.5t-6.5 59t-2.5 35.5q0 19 12.5 32t22.5 16q-10 2 -22.5 16t-12.5 33q0 8 2.5 29t6.5 47t6.5 48.5t2.5 33.5q0 31 -18 54t-47 36.5t-59 13.5
q-14 0 -21.5 11.5t-7.5 24.5t10 25t35 12q37 0 72 -13.5t62 -37t42.5 -53.5t15.5 -63q0 -11 -2.5 -34.5t-6.5 -49.5t-6.5 -47.5t-2.5 -28.5q0 -13 9 -17t21 -6t21 -8.5t9 -24.5t-9 -24.5t-21 -8.5t-21 -6t-9 -17q0 -7 1.5 -25t5 -42.5t6 -50t4 -46t1.5 -30.5q0 -46 -27 -81
t-70.5 -54.5t-93.5 -19.5z" />
    <glyph glyph-name="asciitilde" unicode="~" horiz-adv-x="404" 
d="M278 211q-29 0 -49.5 8.5t-40.5 16.5t-46 8q-21 0 -35 -7.5t-23 -15t-18 -7.5q-8 0 -13 5.5t-7.5 12.5t-2.5 12q0 17 9.5 28t23.5 18.5t29 10.5t25 3q28 0 48 -8t40.5 -16.5t46.5 -8.5q22 0 34.5 7t21 14t17.5 7t14 -5t7.5 -12t2.5 -12q0 -18 -9.5 -29t-23 -18
t-27.5 -9.5t-24 -2.5z" />
    <glyph glyph-name="uni00A0" unicode="&#xa0;" horiz-adv-x="200" 
 />
    <glyph glyph-name="exclamdown" unicode="&#xa1;" horiz-adv-x="207" 
d="M103 -6q-18 0 -31 11t-13 32q0 78 3 163l6 170t3 163q0 14 11 20.5t21 6.5q13 0 23 -6.5t10 -20.5q0 -78 3.5 -163t6.5 -170t3 -163q0 -21 -13.5 -32t-32.5 -11zM103 636q-22 0 -37 15.5t-15 37.5q0 21 15 36.5t37 15.5t37 -15.5t15 -36.5q0 -22 -15 -37.5t-37 -15.5z
" />
    <glyph glyph-name="cent" unicode="&#xa2;" horiz-adv-x="423" 
d="M225 40q-12 0 -20 8t-8 19v100q-84 10 -123.5 63t-39.5 128v20q0 49 17 89.5t53 67.5t93 34v99q0 12 8 19t20 7q11 0 19.5 -7t8.5 -19v-98q36 -2 66 -12t47 -24t17 -30q0 -9 -4.5 -18.5t-12.5 -15.5t-18 -6q-9 0 -19 8t-27.5 16t-48.5 10v-259q31 2 48.5 10.5t27.5 16
t19 7.5q17 0 27.5 -12.5t10.5 -26.5q0 -16 -19 -31t-49 -24.5t-65 -12.5v-99q0 -11 -8.5 -19t-19.5 -8zM197 240v256q-45 -10 -66.5 -40.5t-21.5 -77.5v-20q0 -47 21.5 -77.5t66.5 -40.5z" />
    <glyph glyph-name="sterling" unicode="&#xa3;" horiz-adv-x="503" 
d="M52 0q-14 0 -21.5 12t-7.5 26q0 15 7.5 26.5t21.5 11.5h58l40 291h-70q-12 0 -19 9.5t-7 22.5t7 23t19 10h79l21 140q8 55 41 99.5t83 70.5t105 26h24q16 0 24 -11.5t8 -26.5q0 -13 -8 -25t-24 -12h-29q-38 0 -68.5 -17t-49 -44t-23.5 -60l-21 -140h141q12 0 18.5 -10.5
t6.5 -22.5t-6.5 -22t-18.5 -10h-150l-41 -291h245q14 0 21 -11.5t7 -26.5q0 -14 -7 -26t-21 -12h-385z" />
    <glyph glyph-name="currency" unicode="&#xa4;" horiz-adv-x="469" 
d="M236 290q-32 0 -61 11.5t-53 32.5l-29 -28q-5 -5 -13 -5q-9 0 -15.5 7t-6.5 16q0 7 5 12l31 30q-17 23 -26 50t-9 56t9 56t25 49l-26 26q-5 6 -5 13q0 9 7 16t16 7q7 0 13 -5l24 -25q23 20 52 31.5t62 11.5q30 0 58 -10.5t51 -29.5l27 26q5 5 13 5q9 0 16 -7t7 -16
q0 -7 -6 -13l-27 -26q18 -22 28.5 -50t10.5 -59q0 -30 -11 -58t-29 -51l28 -27q6 -7 6 -12q0 -8 -7 -15.5t-16 -7.5q-8 0 -13 5l-27 26q-23 -19 -51 -30.5t-58 -11.5zM236 345q34 0 62 18t44.5 47t16.5 62q0 32 -16.5 60.5t-44.5 46.5t-62 18q-35 0 -62.5 -18t-44 -46.5
t-16.5 -60.5q0 -33 16.5 -62t44.5 -47t62 -18z" />
    <glyph glyph-name="yen" unicode="&#xa5;" horiz-adv-x="522" 
d="M259 0q-16 0 -29 8t-13 21v146h-107q-12 0 -20.5 9t-8.5 22q0 14 8.5 23.5t20.5 9.5h107v71h-107q-12 0 -20.5 9t-8.5 22q0 14 8.5 23.5t20.5 9.5h88l-171 313q-1 2 -2 5.5t-1 5.5q0 9 7.5 17t19 13.5t22.5 5.5q9 0 15.5 -6t11.5 -15l159 -308l165 308q5 9 11.5 15
t15.5 6q11 0 22 -5.5t18.5 -13.5t7.5 -17q0 -7 -3 -11l-176 -313h92q12 0 21 -9.5t9 -23.5q0 -13 -9 -22t-21 -9h-111v-71h111q12 0 21 -9t9 -23t-9 -23t-21 -9h-111v-146q0 -13 -12.5 -21t-29.5 -8z" />
    <glyph glyph-name="brokenbar" unicode="&#xa6;" horiz-adv-x="214" 
d="M107 444q-18 0 -30 9t-12 20v266q0 13 12 21t30 8q17 0 29.5 -8t12.5 -21v-266q0 -11 -12.5 -20t-29.5 -9zM107 -21q-18 0 -30 9t-12 20v266q0 13 12 21t30 8q17 0 29.5 -8t12.5 -21v-266q0 -11 -12.5 -20t-29.5 -9z" />
    <glyph glyph-name="section" unicode="&#xa7;" horiz-adv-x="471" 
d="M233 -67q-59 0 -101 23.5t-64 61.5t-22 81q0 21 10.5 28.5t27.5 7.5q20 0 28 -8t8 -19q0 -14 4.5 -31.5t15.5 -34t31.5 -27t54.5 -10.5q56 0 84 28.5t28 78.5q0 33 -15 53t-40 33.5t-55 24t-60 24t-55 34t-40.5 53t-15.5 82.5v119q0 60 17 98t44 59.5t58.5 30t60.5 8.5
q55 0 92.5 -22.5t55.5 -59t18 -80.5q0 -23 -9.5 -30t-24.5 -7q-19 0 -28 8.5t-9 25.5t-7.5 39t-27.5 38.5t-57 16.5q-27 0 -51 -11.5t-38.5 -35.5t-14.5 -64q0 -33 15 -53.5t41 -33.5t56.5 -24t61 -24t56 -33.5t41 -53t15.5 -82.5v-118q0 -54 -15.5 -91.5t-43 -60
t-61.5 -32.5t-69 -10zM351 225v27q0 40 -16.5 63t-42.5 37t-56.5 24t-58.5 22t-47 32v-26q0 -40 16.5 -63t42.5 -37t56 -24t58 -22t48 -33z" />
    <glyph glyph-name="dieresis" unicode="&#xa8;" horiz-adv-x="211" 
d="M171 588q-17 0 -28.5 12.5t-11.5 29.5t11.5 29t28.5 12t28.5 -12t11.5 -29t-11.5 -29.5t-28.5 -12.5zM41 588q-17 0 -29 12.5t-12 29.5t12 29t29 12t28.5 -12t11.5 -29t-11.5 -29.5t-28.5 -12.5z" />
    <glyph glyph-name="copyright" unicode="&#xa9;" horiz-adv-x="709" 
d="M351 35q-53 0 -106.5 20t-98.5 60t-72 101t-27 142q0 84 28.5 145.5t74.5 101.5t100.5 60t106.5 20q53 0 106.5 -20t98.5 -60t72 -101t27 -142q0 -84 -28.5 -145.5t-74.5 -101.5t-100.5 -60t-106.5 -20zM351 84q77 0 136 35t92 98t33 145q0 80 -31.5 142t-88.5 97
t-135 35q-75 0 -134.5 -35t-93 -97.5t-33.5 -145.5q0 -79 32 -141.5t89.5 -97.5t133.5 -35zM355 169q-45 0 -76.5 27.5t-31.5 94.5v152q0 66 32 94t76 28q51 0 81 -27.5t30 -71.5q0 -17 -6.5 -23t-20.5 -6q-11 0 -18.5 5t-8.5 14q0 10 -3.5 24t-15 24.5t-36.5 10.5
q-56 0 -56 -72v-152q0 -73 57 -73q24 0 35 11t14.5 25.5t4.5 26.5q1 10 8.5 14.5t18.5 4.5q14 0 20.5 -6t6.5 -24q0 -44 -30.5 -72.5t-80.5 -28.5z" />
    <glyph glyph-name="ordfeminine" unicode="&#xaa;" horiz-adv-x="319" 
d="M134 434q-7 -1 -14 -1.5t-14 0.5q-31 3 -52.5 23t-21.5 61q0 53 42 72t108 19h30v12q0 27 -15 50.5t-52 23.5q-23 0 -36 -5t-20.5 -9.5t-14.5 -4.5q-10 0 -16 10.5t-6 20.5q0 11 14.5 20t36.5 14.5t43 5.5q47 0 75 -18t40 -46.5t12 -61.5v-162q0 -9 -8.5 -15.5
t-21.5 -6.5q-12 0 -20 6.5t-8 15.5v23q-15 -16 -35 -30t-46 -17zM139 479q17 0 34 10t28 25t11 30v28h-26q-24 0 -45 -3.5t-34 -13.5t-13 -31q0 -24 13 -34.5t32 -10.5z" />
    <glyph glyph-name="guillemotleft" unicode="&#xab;" horiz-adv-x="431" 
d="M344 74q-18 0 -25 13l-85 156q-6 12 -10 19t-4 15t4 15.5t10 18.5l85 157q7 13 27 13q13 0 24 -7t17.5 -16t6.5 -19q0 -5 -3 -11l-81 -151l81 -151q3 -4 3 -11q0 -9 -6.5 -18.5t-18 -16t-25.5 -6.5zM157 74q-19 0 -26 13l-84 156q-6 12 -10.5 19t-4.5 15t4.5 15.5
t10.5 18.5l84 157q7 13 27 13q13 0 24.5 -7t18 -16t6.5 -19q0 -5 -3 -11l-81 -151l81 -151q3 -4 3 -11q0 -9 -7 -18.5t-18.5 -16t-24.5 -6.5z" />
    <glyph glyph-name="logicalnot" unicode="&#xac;" horiz-adv-x="489" 
d="M387 163q-18 0 -30 9t-12 20v113h-269q-13 0 -21 10t-8 25q0 16 8 26t21 10h322q12 0 21 -10t9 -26v-148q0 -11 -11.5 -20t-29.5 -9z" />
    <glyph glyph-name="uni00AD" unicode="&#xad;" horiz-adv-x="463" 
d="M71 205q-12 0 -20.5 10t-8.5 25q0 16 8.5 26t20.5 10h320q12 0 21 -10t9 -26q0 -15 -9 -25t-21 -10h-320z" />
    <glyph glyph-name="registered" unicode="&#xae;" horiz-adv-x="709" 
d="M351 35q-53 0 -106.5 20t-98.5 60t-72 101t-27 142q0 84 28.5 145.5t74.5 101.5t100.5 60t106.5 20q53 0 106.5 -20t98.5 -60t72 -101t27 -142q0 -84 -28.5 -145.5t-74.5 -101.5t-100.5 -60t-106.5 -20zM351 84q77 0 136 35t92 98t33 145q0 80 -31.5 142t-88.5 97
t-135 35q-75 0 -134.5 -35t-93 -97.5t-33.5 -145.5q0 -79 32 -141.5t89.5 -97.5t133.5 -35zM445 173q-7 0 -11.5 5.5t-8.5 12.5l-69 148h-48v-146q0 -9 -7.5 -14t-17.5 -5t-18.5 5t-8.5 14v346q0 7 5 12.5t13 5.5h91q30 0 54.5 -10t39.5 -33t15 -64q0 -46 -19 -70.5
t-48 -32.5l65 -139q2 -4 2 -7q0 -11 -9.5 -19.5t-19.5 -8.5zM308 383h57q26 0 42 15t16 47q0 36 -16 50.5t-42 14.5h-57v-127z" />
    <glyph glyph-name="uni0304" unicode="&#xaf;" 
d="M29 628q-13 0 -21 8.5t-8 21.5t8 22t21 9h212q11 0 20.5 -9t9.5 -22t-9.5 -21.5t-20.5 -8.5h-212z" />
    <glyph glyph-name="degree" unicode="&#xb0;" horiz-adv-x="413" 
d="M206 406q-47 0 -87.5 25.5t-65 67t-24.5 89.5t24 89t64.5 66t88.5 25t88.5 -24.5t65 -65t24.5 -90.5q0 -47 -24.5 -89t-65 -67.5t-88.5 -25.5zM206 461q34 0 62 18t44.5 47t16.5 62q0 32 -16 60.5t-44 46.5t-63 18q-34 0 -62 -18t-44 -46.5t-16 -60.5q0 -33 16 -62
t44.5 -47t61.5 -18z" />
    <glyph glyph-name="plusminus" unicode="&#xb1;" horiz-adv-x="475" 
d="M238 172q-15 0 -25.5 8t-10.5 21v121h-125q-12 0 -20.5 10t-8.5 25q0 16 8.5 26t20.5 10h125v120q0 11 10.5 20.5t25.5 9.5q17 0 26.5 -9.5t9.5 -20.5v-120h123q12 0 21 -10t9 -26q0 -15 -9 -25t-21 -10h-123v-121q0 -13 -9.5 -21t-26.5 -8zM77 50q-12 0 -20.5 10
t-8.5 25q0 16 8.5 26t20.5 10h320q12 0 21 -10t9 -26q0 -15 -9 -25t-21 -10h-320z" />
    <glyph glyph-name="uni00B2" unicode="&#xb2;" horiz-adv-x="310" 
d="M57 348q-8 0 -17.5 5.5t-9.5 14.5v50q0 26 19 46.5t47 40t56.5 38t47.5 38.5t19 43q0 18 -15 35t-49 17q-24 0 -40.5 -12t-16.5 -38q0 -8 -9 -15t-23 -7q-12 0 -20 7t-8 25q0 30 16 50.5t43.5 32.5t58.5 12q33 0 61 -13t45 -36.5t17 -55.5q0 -34 -19 -59.5t-46.5 -45
t-55.5 -36t-47 -32t-19 -32.5v-20h170q7 0 13 -8t6 -18t-6 -18.5t-13 -8.5h-205z" />
    <glyph glyph-name="uni00B3" unicode="&#xb3;" horiz-adv-x="318" 
d="M153 345q-44 0 -72 14.5t-41.5 36t-13.5 42.5q0 15 7 19.5t22 4.5q19 0 25 -5t6 -16t7.5 -21t22.5 -16t38 -6q36 0 53.5 14.5t17.5 47.5v9q0 32 -19.5 43.5t-51.5 11.5q-11 0 -15.5 7.5t-4.5 15.5q0 10 4.5 17.5t15.5 7.5q26 0 43 10.5t17 44.5q0 28 -15 39.5t-43 11.5
q-24 0 -36.5 -5.5t-18.5 -14.5t-6 -20q0 -10 -6 -16.5t-22 -6.5q-20 0 -25.5 5.5t-5.5 20.5q0 18 10.5 39t36.5 36t73 15q51 0 83.5 -21t32.5 -73q0 -31 -12.5 -54.5t-33.5 -32.5q26 -9 42 -28.5t16 -52.5v-9q0 -42 -17.5 -67.5t-47 -36.5t-66.5 -11z" />
    <glyph glyph-name="acute" unicode="&#xb4;" horiz-adv-x="168" 
d="M30 584q-12 0 -21 11t-9 23q0 16 13 22l117 62q6 2 10 2q13 0 20.5 -10.5t7.5 -23.5q0 -16 -14 -24l-113 -58q-3 -1 -5.5 -2.5t-5.5 -1.5z" />
    <glyph glyph-name="uni03BC" unicode="&#xb5;" horiz-adv-x="498" 
d="M107 -229q-17 0 -28.5 9t-11.5 20v644q0 11 12 20.5t29 9.5t29.5 -9.5t12.5 -20.5v-274q0 -15 9 -33t25.5 -33.5t37 -26t43.5 -10.5q30 0 55 17t40 44t15 56v260q0 13 12.5 21.5t28.5 8.5q18 0 30 -8.5t12 -21.5v-260q0 -51 -26 -95t-70 -70.5t-98 -26.5q-40 0 -72 17.5
t-50 40.5v-250q0 -11 -10 -20t-25 -9z" />
    <glyph glyph-name="paragraph" unicode="&#xb6;" horiz-adv-x="536" 
d="M294 0q-12 0 -21 7.5t-9 22.5v276h-36q-55 0 -99.5 20.5t-70.5 66t-26 120.5v12q0 75 26 120t70.5 65.5t99.5 20.5h205q11 0 20.5 -7.5t9.5 -22.5v-672q0 -15 -9.5 -22t-20.5 -7q-12 0 -21 7t-9 22v654h-79v-653q0 -15 -9.5 -22.5t-20.5 -7.5z" />
    <glyph glyph-name="periodcentered" unicode="&#xb7;" horiz-adv-x="191" 
d="M96 250q-23 0 -38.5 15t-15.5 35q0 21 15.5 35.5t38.5 14.5q22 0 38 -14.5t16 -35.5q0 -20 -16 -35t-38 -15z" />
    <glyph glyph-name="cedilla" unicode="&#xb8;" horiz-adv-x="173" 
d="M80 -212q-15 0 -33.5 3t-32.5 9t-14 15q0 3 2 10t6 12.5t10 5.5t19 -7t37 -7q28 0 40 10.5t12 26.5q0 19 -15.5 29t-43.5 12l-43 3l26 99h45l-18 -67q51 -1 73.5 -23t22.5 -50q0 -18 -9.5 -36.5t-30 -31.5t-53.5 -13z" />
    <glyph glyph-name="uni00B9" unicode="&#xb9;" horiz-adv-x="175" 
d="M98 348q-12 0 -21 4.5t-9 15.5v286l-21 -20q-6 -5 -12 -5q-9 0 -15 7.5t-6 16.5q0 7 3.5 13t8.5 9l60 51q6 6 15 6q10 0 18.5 -5.5t8.5 -14.5v-344q0 -11 -9.5 -15.5t-20.5 -4.5z" />
    <glyph glyph-name="ordmasculine" unicode="&#xba;" horiz-adv-x="332" 
d="M166 431q-35 0 -65 18t-48 47t-18 62v62q0 34 17.5 62.5t47.5 46t66 17.5q35 0 64.5 -17t47.5 -45.5t18 -63.5v-62q0 -33 -18 -62t-47.5 -47t-64.5 -18zM166 486q28 0 48.5 22.5t20.5 49.5v62q0 27 -20 48.5t-49 21.5q-30 0 -49.5 -21.5t-19.5 -48.5v-62
q0 -27 19.5 -49.5t49.5 -22.5z" />
    <glyph glyph-name="guillemotright" unicode="&#xbb;" horiz-adv-x="431" 
d="M275 74q-13 0 -25 6.5t-18.5 16t-6.5 18.5q0 7 3 11l81 151l-81 151q-3 6 -3 11q0 10 6.5 19t18 16t23.5 7q21 0 27 -13l85 -157q6 -11 10 -18.5t4 -15.5t-4 -15t-10 -19l-85 -156q-6 -13 -25 -13zM87 74q-13 0 -24.5 6.5t-18.5 16t-7 18.5q0 7 3 11l81 151l-81 151
q-3 6 -3 11q0 10 6.5 19t18 16t24.5 7q21 0 27 -13l84 -157q6 -11 10 -18.5t4 -15.5t-4 -15t-10 -19l-84 -156q-7 -13 -26 -13z" />
    <glyph glyph-name="onequarter" unicode="&#xbc;" horiz-adv-x="628" 
d="M98 348q-12 0 -21 4.5t-9 15.5v286l-21 -20q-6 -5 -12 -5q-9 0 -15 7.5t-6 16.5q0 7 3.5 13t8.5 9l60 51q6 6 15 6q10 0 18.5 -5.5t8.5 -14.5v-344q0 -11 -9.5 -15.5t-20.5 -4.5zM69 -30q-13 0 -22.5 9t-9.5 21q0 7 3 13l375 742q8 15 25 15q12 0 23 -9.5t11 -23.5
q0 -7 -3 -14l-374 -737q-3 -8 -11 -12t-17 -4zM535 0q-11 0 -20.5 5t-9.5 15v65h-142q-8 0 -14.5 6t-6.5 16q0 5 4 12l139 248q5 8 12 12t14 4q9 0 20 -6.5t11 -16.5q0 -4 -3 -9l-119 -210h85v66q0 10 9.5 14.5t20.5 4.5q12 0 21.5 -4.5t9.5 -14.5v-66h28q10 0 15.5 -8.5
t5.5 -19.5q0 -10 -6.5 -19t-14.5 -9h-28v-65q0 -10 -9.5 -15t-21.5 -5z" />
    <glyph glyph-name="onehalf" unicode="&#xbd;" horiz-adv-x="642" 
d="M98 348q-12 0 -21 4.5t-9 15.5v286l-21 -20q-6 -5 -12 -5q-9 0 -15 7.5t-6 16.5q0 7 3.5 13t8.5 9l60 51q6 6 15 6q10 0 18.5 -5.5t8.5 -14.5v-344q0 -11 -9.5 -15.5t-20.5 -4.5zM69 -30q-13 0 -22.5 9t-9.5 21q0 7 3 13l375 742q8 15 25 15q12 0 23 -9.5t11 -23.5
q0 -7 -3 -14l-374 -737q-3 -8 -11 -12t-17 -4zM389 0q-8 0 -17.5 5.5t-9.5 14.5v51q0 25 19 46t47 40t56.5 37.5t47.5 38.5t19 43q0 18 -15 35t-49 17q-24 0 -40.5 -12t-16.5 -38q0 -7 -9 -14.5t-23 -7.5q-12 0 -20 7t-8 25q0 30 16 51t43.5 32.5t58.5 11.5q33 0 61 -13
t45 -36.5t17 -55.5q0 -33 -19 -58.5t-46.5 -45.5t-55.5 -36.5t-47 -32t-19 -32.5v-20h170q7 0 13 -7.5t6 -18.5q0 -10 -6 -18.5t-13 -8.5h-205z" />
    <glyph glyph-name="threequarters" unicode="&#xbe;" horiz-adv-x="770" 
d="M153 345q-44 0 -72 14.5t-41.5 36t-13.5 42.5q0 15 7 19.5t22 4.5q19 0 25 -5t6 -16t7.5 -21t22.5 -16t38 -6q36 0 53.5 14.5t17.5 47.5v9q0 32 -19.5 43.5t-51.5 11.5q-11 0 -15.5 7.5t-4.5 15.5q0 10 4.5 17.5t15.5 7.5q26 0 43 10.5t17 44.5q0 28 -15 39.5t-43 11.5
q-24 0 -36.5 -5.5t-18.5 -14.5t-6 -20q0 -10 -6 -16.5t-22 -6.5q-20 0 -25.5 5.5t-5.5 20.5q0 18 10.5 39t36.5 36t73 15q51 0 83.5 -21t32.5 -73q0 -31 -12.5 -54.5t-33.5 -32.5q26 -9 42 -28.5t16 -52.5v-9q0 -42 -17.5 -67.5t-47 -36.5t-66.5 -11zM212 -30q-13 0 -22.5 9
t-9.5 21q0 7 3 13l375 742q8 15 25 15q12 0 23 -9.5t11 -23.5q0 -7 -3 -14l-374 -737q-3 -8 -11 -12t-17 -4zM678 0q-11 0 -20.5 5t-9.5 15v65h-142q-8 0 -14.5 6t-6.5 16q0 5 4 12l139 248q5 8 12 12t14 4q9 0 20 -6.5t11 -16.5q0 -4 -3 -9l-119 -210h85v66q0 10 9.5 14.5
t20.5 4.5q12 0 21.5 -4.5t9.5 -14.5v-66h28q10 0 15.5 -8.5t5.5 -19.5q0 -10 -6.5 -19t-14.5 -9h-28v-65q0 -10 -9.5 -15t-21.5 -5z" />
    <glyph glyph-name="questiondown" unicode="&#xbf;" horiz-adv-x="411" 
d="M225 -6q-62 0 -105.5 23.5t-65.5 63t-22 88.5q0 45 15 79t36.5 60t43 45t34.5 34q19 19 27 39.5t10 46.5t2 61q0 11 7.5 18.5t25.5 7.5q16 0 24.5 -8t8.5 -29q0 -53 -7 -85.5t-17.5 -51.5t-23.5 -32q-15 -16 -34.5 -32.5t-38 -37t-30.5 -46.5t-12 -61q0 -55 33 -85.5
t93 -30.5q34 0 54 8t31.5 19t20.5 19t20 8t22 -8t11 -25q0 -18 -20.5 -38.5t-57 -35t-85.5 -14.5zM233 636q-21 0 -36.5 15.5t-15.5 37.5q0 21 15 36.5t37 15.5t37 -15.5t15 -36.5q0 -22 -15 -37.5t-37 -15.5z" />
    <glyph glyph-name="Agrave" unicode="&#xc0;" horiz-adv-x="548" 
d="M67 0q-10 0 -22.5 4.5t-20 12.5t-7.5 18q0 4 1 8l205 665q4 15 19 22t32 7q18 0 33 -7.5t19 -21.5l204 -665q2 -4 2 -7q0 -10 -8.5 -18t-20.5 -13t-23 -5t-19 4.5t-11 14.5l-45 149h-263l-43 -149q-3 -10 -11.5 -14.5t-20.5 -4.5zM162 237h224l-112 376zM318 835
q-2 0 -5 1.5t-6 2.5l-113 58q-14 8 -14 24q0 13 8 23.5t20 10.5q5 0 10 -2l117 -62q13 -6 13 -22q0 -12 -8.5 -23t-21.5 -11z" />
    <glyph glyph-name="Aacute" unicode="&#xc1;" horiz-adv-x="548" 
d="M67 0q-10 0 -22.5 4.5t-20 12.5t-7.5 18q0 4 1 8l205 665q4 15 19 22t32 7q18 0 33 -7.5t19 -21.5l204 -665q2 -4 2 -7q0 -10 -8.5 -18t-20.5 -13t-23 -5t-19 4.5t-11 14.5l-45 149h-263l-43 -149q-3 -10 -11.5 -14.5t-20.5 -4.5zM162 237h224l-112 376zM234 835
q-12 0 -21 11t-9 23q0 16 13 22l117 62q6 2 10 2q13 0 20.5 -10.5t7.5 -23.5q0 -16 -14 -24l-113 -58q-3 -1 -5.5 -2.5t-5.5 -1.5z" />
    <glyph glyph-name="Acircumflex" unicode="&#xc2;" horiz-adv-x="548" 
d="M67 0q-10 0 -22.5 4.5t-20 12.5t-7.5 18q0 4 1 8l205 665q4 15 19 22t32 7q18 0 33 -7.5t19 -21.5l204 -665q2 -4 2 -7q0 -10 -8.5 -18t-20.5 -13t-23 -5t-19 4.5t-11 14.5l-45 149h-263l-43 -149q-3 -10 -11.5 -14.5t-20.5 -4.5zM162 237h224l-112 376zM161 839
q-9 0 -16 9t-7 20q0 8 4 15t11 11l104 56q9 5 17 5q9 0 17 -5l104 -55q9 -4 12.5 -12t3.5 -16q0 -11 -6.5 -19.5t-16.5 -8.5q-2 0 -4.5 1t-5.5 2l-104 56l-104 -56q-2 -1 -4.5 -2t-4.5 -1z" />
    <glyph glyph-name="Atilde" unicode="&#xc3;" horiz-adv-x="548" 
d="M67 0q-10 0 -22.5 4.5t-20 12.5t-7.5 18q0 4 1 8l205 665q4 15 19 22t32 7q18 0 33 -7.5t19 -21.5l204 -665q2 -4 2 -7q0 -10 -8.5 -18t-20.5 -13t-23 -5t-19 4.5t-11 14.5l-45 149h-263l-43 -149q-3 -10 -11.5 -14.5t-20.5 -4.5zM162 237h224l-112 376zM350 854
q-29 0 -49.5 8.5t-40.5 16.5t-46 8q-21 0 -35 -7t-23 -14.5t-18 -7.5q-8 0 -13 5t-7.5 12t-2.5 12q0 17 9.5 28.5t23.5 18.5t29 10.5t25 3.5q28 0 48 -8t40.5 -16.5t46.5 -8.5q22 0 34.5 7t21 13.5t17.5 6.5t14 -5t7.5 -11.5t2.5 -11.5q0 -18 -9.5 -29.5t-23 -18.5
t-27.5 -9.5t-24 -2.5z" />
    <glyph glyph-name="Adieresis" unicode="&#xc4;" horiz-adv-x="548" 
d="M67 0q-10 0 -22.5 4.5t-20 12.5t-7.5 18q0 4 1 8l205 665q4 15 19 22t32 7q18 0 33 -7.5t19 -21.5l204 -665q2 -4 2 -7q0 -10 -8.5 -18t-20.5 -13t-23 -5t-19 4.5t-11 14.5l-45 149h-263l-43 -149q-3 -10 -11.5 -14.5t-20.5 -4.5zM162 237h224l-112 376zM339 839
q-17 0 -28.5 12.5t-11.5 29.5t11.5 29t28.5 12t28.5 -12t11.5 -29t-11.5 -29.5t-28.5 -12.5zM209 839q-17 0 -29 12.5t-12 29.5t12 29t29 12t28.5 -12t11.5 -29t-11.5 -29.5t-28.5 -12.5z" />
    <glyph glyph-name="Aring" unicode="&#xc5;" horiz-adv-x="548" 
d="M67 0q-10 0 -22.5 4.5t-20 12.5t-7.5 18q0 4 1 8l205 665q4 15 19 22t32 7q18 0 33 -7.5t19 -21.5l204 -665q2 -4 2 -7q0 -10 -8.5 -18t-20.5 -13t-23 -5t-19 4.5t-11 14.5l-45 149h-263l-43 -149q-3 -10 -11.5 -14.5t-20.5 -4.5zM162 237h224l-112 376zM275 825
q-26 0 -47.5 13.5t-34 36t-12.5 47.5t12.5 46.5t34 35t47.5 13.5q25 0 46.5 -13t34.5 -35t13 -47t-13 -47t-34.5 -36t-46.5 -14zM275 863q22 0 38.5 18.5t16.5 40.5q0 20 -16.5 37.5t-38.5 17.5q-24 0 -40 -18t-16 -37q0 -22 16.5 -40.5t39.5 -18.5z" />
    <glyph glyph-name="AE" unicode="&#xc6;" horiz-adv-x="735" 
d="M106 0q-21 0 -29.5 10t-8.5 25v478q0 80 28 127.5t76 69t108 21.5h403q16 0 22.5 -12t6.5 -25q0 -15 -7.5 -27t-21.5 -12h-232v-254h139q14 0 21.5 -11t7.5 -25q0 -12 -7 -23t-22 -11h-139v-255h232q14 0 21.5 -11.5t7.5 -27.5q0 -13 -6.5 -25t-22.5 -12h-278
q-14 0 -26 7.5t-12 22.5v301h-219v-296q0 -15 -7 -25t-35 -10zM148 401h219v254h-87q-62 0 -97 -34.5t-35 -107.5v-112z" />
    <glyph glyph-name="Ccedilla" unicode="&#xc7;" horiz-adv-x="532" 
d="M278 -6q-58 0 -107 21.5t-78 69.5t-29 127v301q0 79 29.5 127t78.5 69.5t107 21.5q68 0 116 -23t74 -62.5t26 -88.5q0 -28 -10.5 -37t-31.5 -9q-20 0 -30.5 8t-11.5 21q-1 15 -5.5 34.5t-18 38t-39 30.5t-67.5 12q-64 0 -98.5 -34.5t-34.5 -107.5v-301q0 -73 35 -107.5
t101 -34.5q42 0 66.5 12t36.5 30t17 38.5t7 38.5q1 15 12 22t30 7q21 0 31.5 -9.5t10.5 -37.5q0 -49 -26.5 -89.5t-75 -64t-115.5 -23.5zM299 -212q-15 0 -33.5 3t-32.5 9t-14 15q0 3 2 10t6 12.5t10 5.5t19 -7t37 -7q28 0 40 10.5t12 26.5q0 19 -15.5 29t-43.5 12l-43 3
l26 99h45l-18 -67q51 -1 73.5 -23t22.5 -50q0 -18 -9.5 -36.5t-30 -31.5t-53.5 -13z" />
    <glyph glyph-name="Egrave" unicode="&#xc8;" horiz-adv-x="514" 
d="M109 0q-14 0 -26 7.5t-12 22.5v671q0 15 12 22.5t26 7.5h356q16 0 22.5 -12t6.5 -25q0 -15 -7.5 -27t-21.5 -12h-310v-254h156q14 0 21.5 -11t7.5 -25q0 -12 -6.5 -23t-22.5 -11h-156v-255h310q14 0 21.5 -11.5t7.5 -27.5q0 -13 -6.5 -25t-22.5 -12h-356zM324 835
q-2 0 -5 1.5t-6 2.5l-113 58q-14 8 -14 24q0 13 8 23.5t20 10.5q5 0 10 -2l117 -62q13 -6 13 -22q0 -12 -8.5 -23t-21.5 -11z" />
    <glyph glyph-name="Eacute" unicode="&#xc9;" horiz-adv-x="514" 
d="M109 0q-14 0 -26 7.5t-12 22.5v671q0 15 12 22.5t26 7.5h356q16 0 22.5 -12t6.5 -25q0 -15 -7.5 -27t-21.5 -12h-310v-254h156q14 0 21.5 -11t7.5 -25q0 -12 -6.5 -23t-22.5 -11h-156v-255h310q14 0 21.5 -11.5t7.5 -27.5q0 -13 -6.5 -25t-22.5 -12h-356zM240 835
q-12 0 -21 11t-9 23q0 16 13 22l117 62q6 2 10 2q13 0 20.5 -10.5t7.5 -23.5q0 -16 -14 -24l-113 -58q-3 -1 -5.5 -2.5t-5.5 -1.5z" />
    <glyph glyph-name="Ecircumflex" unicode="&#xca;" horiz-adv-x="514" 
d="M109 0q-14 0 -26 7.5t-12 22.5v671q0 15 12 22.5t26 7.5h356q16 0 22.5 -12t6.5 -25q0 -15 -7.5 -27t-21.5 -12h-310v-254h156q14 0 21.5 -11t7.5 -25q0 -12 -6.5 -23t-22.5 -11h-156v-255h310q14 0 21.5 -11.5t7.5 -27.5q0 -13 -6.5 -25t-22.5 -12h-356zM167 839
q-9 0 -16 9t-7 20q0 8 4 15t11 11l104 56q9 5 17 5q9 0 17 -5l104 -55q9 -4 12.5 -12t3.5 -16q0 -11 -6.5 -19.5t-16.5 -8.5q-2 0 -4.5 1t-5.5 2l-104 56l-104 -56q-2 -1 -4.5 -2t-4.5 -1z" />
    <glyph glyph-name="Edieresis" unicode="&#xcb;" horiz-adv-x="514" 
d="M109 0q-14 0 -26 7.5t-12 22.5v671q0 15 12 22.5t26 7.5h356q16 0 22.5 -12t6.5 -25q0 -15 -7.5 -27t-21.5 -12h-310v-254h156q14 0 21.5 -11t7.5 -25q0 -12 -6.5 -23t-22.5 -11h-156v-255h310q14 0 21.5 -11.5t7.5 -27.5q0 -13 -6.5 -25t-22.5 -12h-356zM346 839
q-17 0 -28.5 12.5t-11.5 29.5t11.5 29t28.5 12t28.5 -12t11.5 -29t-11.5 -29.5t-28.5 -12.5zM216 839q-17 0 -29 12.5t-12 29.5t12 29t29 12t28.5 -12t11.5 -29t-11.5 -29.5t-28.5 -12.5z" />
    <glyph glyph-name="Igrave" unicode="&#xcc;" horiz-adv-x="227" 
d="M113 0q-15 0 -28.5 7.5t-13.5 22.5v672q0 15 13.5 22t28.5 7q16 0 29 -7t13 -22v-672q0 -15 -13 -22.5t-29 -7.5zM156 835q-2 0 -5 1.5t-6 2.5l-113 58q-14 8 -14 24q0 13 8 23.5t20 10.5q5 0 10 -2l117 -62q13 -6 13 -22q0 -12 -8.5 -23t-21.5 -11z" />
    <glyph glyph-name="Iacute" unicode="&#xcd;" horiz-adv-x="227" 
d="M113 0q-15 0 -28.5 7.5t-13.5 22.5v672q0 15 13.5 22t28.5 7q16 0 29 -7t13 -22v-672q0 -15 -13 -22.5t-29 -7.5zM73 835q-12 0 -21 11t-9 23q0 16 13 22l117 62q6 2 10 2q13 0 20.5 -10.5t7.5 -23.5q0 -16 -14 -24l-113 -58q-3 -1 -5.5 -2.5t-5.5 -1.5z" />
    <glyph glyph-name="Icircumflex" unicode="&#xce;" horiz-adv-x="227" 
d="M113 0q-15 0 -28.5 7.5t-13.5 22.5v672q0 15 13.5 22t28.5 7q16 0 29 -7t13 -22v-672q0 -15 -13 -22.5t-29 -7.5zM0 839q-9 0 -16 9t-7 20q0 8 4 15t11 11l104 56q9 5 17 5q9 0 17 -5l104 -55q9 -4 12.5 -12t3.5 -16q0 -11 -6.5 -19.5t-16.5 -8.5q-2 0 -4.5 1t-5.5 2
l-104 56l-104 -56q-2 -1 -4.5 -2t-4.5 -1z" />
    <glyph glyph-name="Idieresis" unicode="&#xcf;" horiz-adv-x="227" 
d="M113 0q-15 0 -28.5 7.5t-13.5 22.5v672q0 15 13.5 22t28.5 7q16 0 29 -7t13 -22v-672q0 -15 -13 -22.5t-29 -7.5zM178 839q-17 0 -28.5 12.5t-11.5 29.5t11.5 29t28.5 12t28.5 -12t11.5 -29t-11.5 -29.5t-28.5 -12.5zM48 839q-17 0 -29 12.5t-12 29.5t12 29t29 12
t28.5 -12t11.5 -29t-11.5 -29.5t-28.5 -12.5z" />
    <glyph glyph-name="Eth" unicode="&#xd0;" horiz-adv-x="574" 
d="M118 0q-17 0 -27.5 8.5t-10.5 20.5v322h-57q-12 0 -18.5 10t-6.5 22q0 13 6.5 23t18.5 10h57v286q0 12 10.5 20.5t27.5 8.5h177q60 0 109.5 -21.5t78 -69t28.5 -127.5v-295q0 -80 -28.5 -127.5t-78 -69t-109.5 -21.5h-177zM164 76h131q62 0 97 34.5t35 107.5v295
q0 73 -35 107.5t-97 34.5h-131v-239h103q12 0 19 -10t7 -23t-7 -22.5t-19 -9.5h-103v-275z" />
    <glyph glyph-name="Ntilde" unicode="&#xd1;" horiz-adv-x="582" 
d="M113 0q-15 0 -28.5 7.5t-13.5 22.5v672q0 16 13.5 22.5t28.5 6.5q16 0 27 -6t20 -17.5t18 -29.5l248 -487v511q0 15 13.5 22t28.5 7q16 0 29 -7t13 -22v-672q0 -15 -13 -22.5t-29 -7.5t-29.5 11t-22.5 27l-261 503v-511q0 -15 -13 -22.5t-29 -7.5zM366 854
q-29 0 -49.5 8.5t-40.5 16.5t-46 8q-21 0 -35 -7t-23 -14.5t-18 -7.5q-8 0 -13 5t-7.5 12t-2.5 12q0 17 9.5 28.5t23.5 18.5t29 10.5t25 3.5q28 0 48 -8t40.5 -16.5t46.5 -8.5q22 0 34.5 7t21 13.5t17.5 6.5t14 -5t7.5 -11.5t2.5 -11.5q0 -18 -9.5 -29.5t-23 -18.5
t-27.5 -9.5t-24 -2.5z" />
    <glyph glyph-name="Ograve" unicode="&#xd2;" horiz-adv-x="559" 
d="M279 -6q-61 0 -109.5 21.5t-77 69t-28.5 127.5v301q0 80 28.5 127.5t77 69t109.5 21.5t110 -21.5t77.5 -69t28.5 -127.5v-301q0 -80 -28.5 -127.5t-77.5 -69t-110 -21.5zM279 70q62 0 97 34.5t35 107.5v301q0 73 -35 107.5t-97 34.5t-96.5 -34.5t-34.5 -107.5v-301
q0 -73 34.5 -107.5t96.5 -34.5zM323 835q-2 0 -5 1.5t-6 2.5l-113 58q-14 8 -14 24q0 13 8 23.5t20 10.5q5 0 10 -2l117 -62q13 -6 13 -22q0 -12 -8.5 -23t-21.5 -11z" />
    <glyph glyph-name="Oacute" unicode="&#xd3;" horiz-adv-x="559" 
d="M279 -6q-61 0 -109.5 21.5t-77 69t-28.5 127.5v301q0 80 28.5 127.5t77 69t109.5 21.5t110 -21.5t77.5 -69t28.5 -127.5v-301q0 -80 -28.5 -127.5t-77.5 -69t-110 -21.5zM279 70q62 0 97 34.5t35 107.5v301q0 73 -35 107.5t-97 34.5t-96.5 -34.5t-34.5 -107.5v-301
q0 -73 34.5 -107.5t96.5 -34.5zM239 835q-12 0 -21 11t-9 23q0 16 13 22l117 62q6 2 10 2q13 0 20.5 -10.5t7.5 -23.5q0 -16 -14 -24l-113 -58q-3 -1 -5.5 -2.5t-5.5 -1.5z" />
    <glyph glyph-name="Ocircumflex" unicode="&#xd4;" horiz-adv-x="559" 
d="M279 -6q-61 0 -109.5 21.5t-77 69t-28.5 127.5v301q0 80 28.5 127.5t77 69t109.5 21.5t110 -21.5t77.5 -69t28.5 -127.5v-301q0 -80 -28.5 -127.5t-77.5 -69t-110 -21.5zM279 70q62 0 97 34.5t35 107.5v301q0 73 -35 107.5t-97 34.5t-96.5 -34.5t-34.5 -107.5v-301
q0 -73 34.5 -107.5t96.5 -34.5zM167 839q-9 0 -16 9t-7 20q0 8 4 15t11 11l104 56q9 5 17 5q9 0 17 -5l104 -55q9 -4 12.5 -12t3.5 -16q0 -11 -6.5 -19.5t-16.5 -8.5q-2 0 -4.5 1t-5.5 2l-104 56l-104 -56q-2 -1 -4.5 -2t-4.5 -1z" />
    <glyph glyph-name="Otilde" unicode="&#xd5;" horiz-adv-x="559" 
d="M279 -6q-61 0 -109.5 21.5t-77 69t-28.5 127.5v301q0 80 28.5 127.5t77 69t109.5 21.5t110 -21.5t77.5 -69t28.5 -127.5v-301q0 -80 -28.5 -127.5t-77.5 -69t-110 -21.5zM279 70q62 0 97 34.5t35 107.5v301q0 73 -35 107.5t-97 34.5t-96.5 -34.5t-34.5 -107.5v-301
q0 -73 34.5 -107.5t96.5 -34.5zM355 854q-29 0 -49.5 8.5t-40.5 16.5t-46 8q-21 0 -35 -7t-23 -14.5t-18 -7.5q-8 0 -13 5t-7.5 12t-2.5 12q0 17 9.5 28.5t23.5 18.5t29 10.5t25 3.5q28 0 48 -8t40.5 -16.5t46.5 -8.5q22 0 34.5 7t21 13.5t17.5 6.5t14 -5t7.5 -11.5
t2.5 -11.5q0 -18 -9.5 -29.5t-23 -18.5t-27.5 -9.5t-24 -2.5z" />
    <glyph glyph-name="Odieresis" unicode="&#xd6;" horiz-adv-x="559" 
d="M279 -6q-61 0 -109.5 21.5t-77 69t-28.5 127.5v301q0 80 28.5 127.5t77 69t109.5 21.5t110 -21.5t77.5 -69t28.5 -127.5v-301q0 -80 -28.5 -127.5t-77.5 -69t-110 -21.5zM279 70q62 0 97 34.5t35 107.5v301q0 73 -35 107.5t-97 34.5t-96.5 -34.5t-34.5 -107.5v-301
q0 -73 34.5 -107.5t96.5 -34.5zM345 839q-17 0 -28.5 12.5t-11.5 29.5t11.5 29t28.5 12t28.5 -12t11.5 -29t-11.5 -29.5t-28.5 -12.5zM215 839q-17 0 -29 12.5t-12 29.5t12 29t29 12t28.5 -12t11.5 -29t-11.5 -29.5t-28.5 -12.5z" />
    <glyph glyph-name="multiply" unicode="&#xd7;" horiz-adv-x="400" 
d="M92 129q-9 0 -18 5.5t-15 15t-6 18.5q0 11 8 19l92 88l-92 87q-7 8 -7 20q0 15 12 27t27 12q11 0 19 -8l87 -87l88 87q7 8 19 8q15 0 27 -12t12 -27q0 -12 -7 -20l-92 -87l92 -88q8 -8 8 -19q0 -10 -5.5 -19t-14.5 -14.5t-19 -5.5q-11 0 -19 7l-89 89l-88 -89
q-7 -7 -19 -7z" />
    <glyph glyph-name="Oslash" unicode="&#xd8;" horiz-adv-x="559" 
d="M279 -6q-61 0 -109.5 21.5t-77 69t-28.5 127.5v301q0 80 28.5 127.5t77 69t109.5 21.5t110 -21.5t77.5 -69t28.5 -127.5v-301q0 -80 -28.5 -127.5t-77.5 -69t-110 -21.5zM279 70q62 0 97 34.5t35 107.5v301q0 73 -35 107.5t-97 34.5t-96.5 -34.5t-34.5 -107.5v-301
q0 -73 34.5 -107.5t96.5 -34.5zM97 -32q-14 0 -23 9t-9 21q0 7 3 13l375 742q7 15 25 15q12 0 23 -9.5t11 -23.5q0 -7 -3 -14l-374 -737q-4 -8 -11.5 -12t-16.5 -4z" />
    <glyph glyph-name="Ugrave" unicode="&#xd9;" horiz-adv-x="572" 
d="M286 -6q-62 0 -111 21.5t-78 69t-29 127.5v490q0 15 12.5 22t29.5 7q16 0 29 -7t13 -22v-490q0 -73 35 -107.5t99 -34.5q63 0 98.5 34.5t35.5 107.5v490q0 15 13 22t29 7t29 -7t13 -22v-490q0 -80 -29 -127.5t-78.5 -69t-110.5 -21.5zM329 835q-2 0 -5 1.5t-6 2.5
l-113 58q-14 8 -14 24q0 13 8 23.5t20 10.5q5 0 10 -2l117 -62q13 -6 13 -22q0 -12 -8.5 -23t-21.5 -11z" />
    <glyph glyph-name="Uacute" unicode="&#xda;" horiz-adv-x="572" 
d="M286 -6q-62 0 -111 21.5t-78 69t-29 127.5v490q0 15 12.5 22t29.5 7q16 0 29 -7t13 -22v-490q0 -73 35 -107.5t99 -34.5q63 0 98.5 34.5t35.5 107.5v490q0 15 13 22t29 7t29 -7t13 -22v-490q0 -80 -29 -127.5t-78.5 -69t-110.5 -21.5zM246 835q-12 0 -21 11t-9 23
q0 16 13 22l117 62q6 2 10 2q13 0 20.5 -10.5t7.5 -23.5q0 -16 -14 -24l-113 -58q-3 -1 -5.5 -2.5t-5.5 -1.5z" />
    <glyph glyph-name="Ucircumflex" unicode="&#xdb;" horiz-adv-x="572" 
d="M286 -6q-62 0 -111 21.5t-78 69t-29 127.5v490q0 15 12.5 22t29.5 7q16 0 29 -7t13 -22v-490q0 -73 35 -107.5t99 -34.5q63 0 98.5 34.5t35.5 107.5v490q0 15 13 22t29 7t29 -7t13 -22v-490q0 -80 -29 -127.5t-78.5 -69t-110.5 -21.5zM173 839q-9 0 -16 9t-7 20q0 8 4 15
t11 11l104 56q9 5 17 5q9 0 17 -5l104 -55q9 -4 12.5 -12t3.5 -16q0 -11 -6.5 -19.5t-16.5 -8.5q-2 0 -4.5 1t-5.5 2l-104 56l-104 -56q-2 -1 -4.5 -2t-4.5 -1z" />
    <glyph glyph-name="Udieresis" unicode="&#xdc;" horiz-adv-x="572" 
d="M286 -6q-62 0 -111 21.5t-78 69t-29 127.5v490q0 15 12.5 22t29.5 7q16 0 29 -7t13 -22v-490q0 -73 35 -107.5t99 -34.5q63 0 98.5 34.5t35.5 107.5v490q0 15 13 22t29 7t29 -7t13 -22v-490q0 -80 -29 -127.5t-78.5 -69t-110.5 -21.5zM351 839q-17 0 -28.5 12.5
t-11.5 29.5t11.5 29t28.5 12t28.5 -12t11.5 -29t-11.5 -29.5t-28.5 -12.5zM221 839q-17 0 -29 12.5t-12 29.5t12 29t29 12t28.5 -12t11.5 -29t-11.5 -29.5t-28.5 -12.5z" />
    <glyph glyph-name="Yacute" unicode="&#xdd;" horiz-adv-x="541" 
d="M270 0q-15 0 -28.5 7.5t-13.5 22.5v253q0 6 -2 10l-207 386q-2 5 -3 9.5t-1 7.5q0 10 8 18t19.5 12.5t22.5 4.5t17.5 -5.5t12.5 -16.5l175 -343l176 343q6 11 13 16.5t17 5.5q11 0 22.5 -4.5t19.5 -12.5t8 -18q0 -3 -1 -7.5t-3 -9.5l-207 -386q-3 -4 -3 -10v-253
q0 -15 -13 -22.5t-29 -7.5zM230 835q-12 0 -21 11t-9 23q0 16 13 22l117 62q6 2 10 2q13 0 20.5 -10.5t7.5 -23.5q0 -16 -14 -24l-113 -58q-3 -1 -5.5 -2.5t-5.5 -1.5z" />
    <glyph glyph-name="Thorn" unicode="&#xde;" horiz-adv-x="501" 
d="M113 0q-18 0 -30 9.5t-12 20.5v679q0 14 12 21.5t28 7.5q19 0 31 -8t12 -21v-165q17 30 51.5 53t84.5 23q47 0 86.5 -21t63.5 -59.5t24 -90.5v-143q0 -51 -24.5 -90t-63 -61t-81.5 -22q-30 0 -59 10.5t-50.5 28.5t-31.5 40v-182q0 -11 -12 -20.5t-29 -9.5zM271 208
q28 0 53.5 11.5t41 33.5t15.5 53v143q0 30 -15.5 51.5t-41 33t-53.5 11.5q-30 0 -57 -12t-43.5 -33.5t-16.5 -50.5v-148q0 -20 15.5 -41.5t41.5 -36.5t60 -15z" />
    <glyph glyph-name="germandbls" unicode="&#xdf;" horiz-adv-x="564" 
d="M335 -20q-13 0 -31 1.5t-34.5 6.5t-27.5 14.5t-11 25.5q0 9 2.5 18t8 15.5t12.5 6.5q11 0 27.5 -8.5t47.5 -8.5q55 0 87 37.5t32 109.5v15q0 41 -15 75.5t-47 57.5t-82 29q-16 3 -25.5 9t-9.5 26t10 25.5t26 8.5q24 3 38.5 15.5t22 30.5t10.5 38t3 37q0 58 -24.5 93
t-77.5 35q-36 0 -57 -16.5t-30 -42.5t-9 -56v-549q0 -13 -12.5 -21t-30.5 -8q-17 0 -28.5 8t-11.5 21v380h-68q-12 0 -19 9.5t-7 22.5t7 23t19 10h68v104q0 51 17.5 94t56 69.5t101.5 26.5q49 0 89.5 -19.5t64 -59.5t23.5 -103q0 -34 -8 -68t-23.5 -60.5t-38.5 -37.5
q35 -6 68.5 -33.5t56.5 -70.5t23 -97v-16q0 -75 -27.5 -124t-71.5 -74t-94 -25z" />
    <glyph glyph-name="agrave" unicode="&#xe0;" horiz-adv-x="447" 
d="M163 -8q-56 0 -95.5 32.5t-39.5 100.5q0 55 30 85.5t82.5 42t121.5 11.5h48v21q0 30 -11 58.5t-34.5 47t-64.5 18.5q-35 0 -55.5 -7t-32.5 -14.5t-21 -7.5q-15 0 -23 14.5t-8 27.5q0 16 22 29t55 21t65 8q70 0 112 -28t60.5 -72t18.5 -94v-256q0 -12 -11.5 -21t-29.5 -9
q-16 0 -27 9t-11 21v40q-26 -30 -63 -54t-88 -24zM189 59q29 0 56.5 16t46 40t18.5 46v52h-35q-42 0 -79.5 -5t-60.5 -21.5t-23 -52.5q0 -39 22 -57t55 -18zM259 582q-2 0 -5 1.5t-6 2.5l-113 58q-14 8 -14 24q0 13 8 23.5t20 10.5q5 0 10 -2l117 -62q13 -6 13 -22
q0 -12 -8.5 -23t-21.5 -11z" />
    <glyph glyph-name="aacute" unicode="&#xe1;" horiz-adv-x="447" 
d="M163 -8q-56 0 -95.5 32.5t-39.5 100.5q0 55 30 85.5t82.5 42t121.5 11.5h48v21q0 30 -11 58.5t-34.5 47t-64.5 18.5q-35 0 -55.5 -7t-32.5 -14.5t-21 -7.5q-15 0 -23 14.5t-8 27.5q0 16 22 29t55 21t65 8q70 0 112 -28t60.5 -72t18.5 -94v-256q0 -12 -11.5 -21t-29.5 -9
q-16 0 -27 9t-11 21v40q-26 -30 -63 -54t-88 -24zM189 59q29 0 56.5 16t46 40t18.5 46v52h-35q-42 0 -79.5 -5t-60.5 -21.5t-23 -52.5q0 -39 22 -57t55 -18zM176 582q-12 0 -21 11t-9 23q0 16 13 22l117 62q6 2 10 2q13 0 20.5 -10.5t7.5 -23.5q0 -16 -14 -24l-113 -58
q-3 -1 -5.5 -2.5t-5.5 -1.5z" />
    <glyph glyph-name="acircumflex" unicode="&#xe2;" horiz-adv-x="447" 
d="M163 -8q-56 0 -95.5 32.5t-39.5 100.5q0 55 30 85.5t82.5 42t121.5 11.5h48v21q0 30 -11 58.5t-34.5 47t-64.5 18.5q-35 0 -55.5 -7t-32.5 -14.5t-21 -7.5q-15 0 -23 14.5t-8 27.5q0 16 22 29t55 21t65 8q70 0 112 -28t60.5 -72t18.5 -94v-256q0 -12 -11.5 -21t-29.5 -9
q-16 0 -27 9t-11 21v40q-26 -30 -63 -54t-88 -24zM189 59q29 0 56.5 16t46 40t18.5 46v52h-35q-42 0 -79.5 -5t-60.5 -21.5t-23 -52.5q0 -39 22 -57t55 -18zM103 586q-9 0 -16 9t-7 20q0 8 4 15t11 11l104 56q9 5 17 5q9 0 17 -5l104 -55q9 -4 12.5 -12t3.5 -16
q0 -11 -6.5 -19.5t-16.5 -8.5q-2 0 -4.5 1t-5.5 2l-104 56l-104 -56q-2 -1 -4.5 -2t-4.5 -1z" />
    <glyph glyph-name="atilde" unicode="&#xe3;" horiz-adv-x="447" 
d="M163 -8q-56 0 -95.5 32.5t-39.5 100.5q0 55 30 85.5t82.5 42t121.5 11.5h48v21q0 30 -11 58.5t-34.5 47t-64.5 18.5q-35 0 -55.5 -7t-32.5 -14.5t-21 -7.5q-15 0 -23 14.5t-8 27.5q0 16 22 29t55 21t65 8q70 0 112 -28t60.5 -72t18.5 -94v-256q0 -12 -11.5 -21t-29.5 -9
q-16 0 -27 9t-11 21v40q-26 -30 -63 -54t-88 -24zM189 59q29 0 56.5 16t46 40t18.5 46v52h-35q-42 0 -79.5 -5t-60.5 -21.5t-23 -52.5q0 -39 22 -57t55 -18zM291 601q-29 0 -49.5 8.5t-40.5 16.5t-46 8q-21 0 -35 -7t-23 -14.5t-18 -7.5q-8 0 -13 5t-7.5 12t-2.5 12
q0 17 9.5 28.5t23.5 18.5t29 10.5t25 3.5q28 0 48 -8t40.5 -16.5t46.5 -8.5q22 0 34.5 7t21 13.5t17.5 6.5t14 -5t7.5 -11.5t2.5 -11.5q0 -18 -9.5 -29.5t-23 -18.5t-27.5 -9.5t-24 -2.5z" />
    <glyph glyph-name="adieresis" unicode="&#xe4;" horiz-adv-x="447" 
d="M163 -8q-56 0 -95.5 32.5t-39.5 100.5q0 55 30 85.5t82.5 42t121.5 11.5h48v21q0 30 -11 58.5t-34.5 47t-64.5 18.5q-35 0 -55.5 -7t-32.5 -14.5t-21 -7.5q-15 0 -23 14.5t-8 27.5q0 16 22 29t55 21t65 8q70 0 112 -28t60.5 -72t18.5 -94v-256q0 -12 -11.5 -21t-29.5 -9
q-16 0 -27 9t-11 21v40q-26 -30 -63 -54t-88 -24zM189 59q29 0 56.5 16t46 40t18.5 46v52h-35q-42 0 -79.5 -5t-60.5 -21.5t-23 -52.5q0 -39 22 -57t55 -18zM281 586q-17 0 -28.5 12.5t-11.5 29.5t11.5 29t28.5 12t28.5 -12t11.5 -29t-11.5 -29.5t-28.5 -12.5zM151 586
q-17 0 -29 12.5t-12 29.5t12 29t29 12t28.5 -12t11.5 -29t-11.5 -29.5t-28.5 -12.5z" />
    <glyph glyph-name="aring" unicode="&#xe5;" horiz-adv-x="447" 
d="M163 -8q-56 0 -95.5 32.5t-39.5 100.5q0 55 30 85.5t82.5 42t121.5 11.5h48v21q0 30 -11 58.5t-34.5 47t-64.5 18.5q-35 0 -55.5 -7t-32.5 -14.5t-21 -7.5q-15 0 -23 14.5t-8 27.5q0 16 22 29t55 21t65 8q70 0 112 -28t60.5 -72t18.5 -94v-256q0 -12 -11.5 -21t-29.5 -9
q-16 0 -27 9t-11 21v40q-26 -30 -63 -54t-88 -24zM189 59q29 0 56.5 16t46 40t18.5 46v52h-35q-42 0 -79.5 -5t-60.5 -21.5t-23 -52.5q0 -39 22 -57t55 -18zM216 572q-26 0 -47.5 13.5t-34 36t-12.5 47.5t12.5 46.5t34 35t47.5 13.5q25 0 46.5 -13t34.5 -35t13 -47t-13 -47
t-34.5 -36t-46.5 -14zM216 610q22 0 38.5 18.5t16.5 40.5q0 20 -16.5 37.5t-38.5 17.5q-24 0 -40 -18t-16 -37q0 -22 16.5 -40.5t39.5 -18.5z" />
    <glyph glyph-name="ae" unicode="&#xe6;" horiz-adv-x="734" 
d="M173 -8q-39 0 -72 14.5t-53 44t-20 73.5q0 56 29.5 86.5t81.5 42t121 11.5h48v22q0 29 -10.5 57.5t-34.5 47.5t-66 19q-33 0 -53.5 -7.5t-33 -15t-21.5 -7.5q-14 0 -22.5 14.5t-8.5 28.5q0 16 22 28.5t55 20.5t66 8q59 0 96.5 -25t57.5 -64q24 39 64 64t88 25
q34 0 68.5 -11.5t62.5 -35.5t45 -60.5t17 -85.5q0 -33 -9.5 -49t-29 -20.5t-49.5 -4.5h-219v-30q0 -56 40 -88.5t100 -32.5q37 0 59.5 10t36.5 19.5t26 9.5q10 0 17.5 -6t12 -14.5t4.5 -17.5q0 -16 -23.5 -32.5t-61 -27.5t-80.5 -11q-56 0 -104 26.5t-75 73.5
q-33 -51 -80 -75.5t-92 -24.5zM188 59q32 0 59 16t44 40t17 46v52h-35q-43 0 -80 -5t-59.5 -22t-22.5 -54t22 -55t55 -18zM393 269h184q28 0 36 6.5t8 24.5q0 31 -14.5 56.5t-40.5 41.5t-59 16q-31 0 -57 -14.5t-41.5 -39t-15.5 -55.5v-36z" />
    <glyph glyph-name="ccedilla" unicode="&#xe7;" horiz-adv-x="418" 
d="M243 -8q-69 0 -113.5 26t-66 69.5t-21.5 98.5v100q0 54 21.5 98t66 70t112.5 26q44 0 77 -11t51 -27t18 -31q0 -8 -4.5 -17.5t-12 -16.5t-17.5 -7t-21.5 9t-31 17.5t-54.5 8.5q-61 0 -91.5 -32t-30.5 -87v-100q0 -55 30.5 -87t92.5 -32q36 0 56 9.5t31.5 18t22.5 8.5
t19 -6.5t12.5 -15.5t4.5 -18q0 -15 -19 -31.5t-53 -28t-79 -11.5zM250 -212q-15 0 -33.5 3t-32.5 9t-14 15q0 3 2 10t6 12.5t10 5.5t19 -7t37 -7q28 0 40 10.5t12 26.5q0 19 -15.5 29t-43.5 12l-43 3l26 99h45l-18 -67q51 -1 73.5 -23t22.5 -50q0 -18 -9.5 -36.5t-30 -31.5
t-53.5 -13z" />
    <glyph glyph-name="egrave" unicode="&#xe8;" horiz-adv-x="465" 
d="M264 -8q-65 0 -115 24.5t-79 68t-29 101.5v105q0 51 27.5 94t72.5 69t99 26q52 0 95.5 -24t70 -65t26.5 -95q0 -40 -13 -57.5t-33 -21.5t-42 -4h-220v-30q0 -56 40 -88.5t103 -32.5q37 0 59 10t36 19.5t25 9.5t18.5 -6.5t11.5 -15.5t4 -16q0 -13 -19 -29.5t-54.5 -29
t-83.5 -12.5zM124 269h185q27 0 35.5 6.5t8.5 25.5q0 30 -14.5 55.5t-40.5 41.5t-59 16q-31 0 -57 -14.5t-42 -39.5t-16 -55v-36zM283 583q-2 0 -5 1.5t-6 2.5l-113 58q-14 8 -14 24q0 13 8 23.5t20 10.5q5 0 10 -2l117 -62q13 -6 13 -22q0 -12 -8.5 -23t-21.5 -11z" />
    <glyph glyph-name="eacute" unicode="&#xe9;" horiz-adv-x="465" 
d="M264 -8q-65 0 -115 24.5t-79 68t-29 101.5v105q0 51 27.5 94t72.5 69t99 26q52 0 95.5 -24t70 -65t26.5 -95q0 -40 -13 -57.5t-33 -21.5t-42 -4h-220v-30q0 -56 40 -88.5t103 -32.5q37 0 59 10t36 19.5t25 9.5t18.5 -6.5t11.5 -15.5t4 -16q0 -13 -19 -29.5t-54.5 -29
t-83.5 -12.5zM124 269h185q27 0 35.5 6.5t8.5 25.5q0 30 -14.5 55.5t-40.5 41.5t-59 16q-31 0 -57 -14.5t-42 -39.5t-16 -55v-36zM200 584q-12 0 -21 11t-9 23q0 16 13 22l117 62q6 2 10 2q13 0 20.5 -10.5t7.5 -23.5q0 -16 -14 -24l-113 -58q-3 -1 -5.5 -2.5t-5.5 -1.5z
" />
    <glyph glyph-name="ecircumflex" unicode="&#xea;" horiz-adv-x="465" 
d="M264 -8q-65 0 -115 24.5t-79 68t-29 101.5v105q0 51 27.5 94t72.5 69t99 26q52 0 95.5 -24t70 -65t26.5 -95q0 -40 -13 -57.5t-33 -21.5t-42 -4h-220v-30q0 -56 40 -88.5t103 -32.5q37 0 59 10t36 19.5t25 9.5t18.5 -6.5t11.5 -15.5t4 -16q0 -13 -19 -29.5t-54.5 -29
t-83.5 -12.5zM124 269h185q27 0 35.5 6.5t8.5 25.5q0 30 -14.5 55.5t-40.5 41.5t-59 16q-31 0 -57 -14.5t-42 -39.5t-16 -55v-36zM127 587q-9 0 -16 9t-7 20q0 8 4 15t11 11l104 56q9 5 17 5q9 0 17 -5l104 -55q9 -4 12.5 -12t3.5 -16q0 -11 -6.5 -19.5t-16.5 -8.5
q-2 0 -4.5 1t-5.5 2l-104 56l-104 -56q-2 -1 -4.5 -2t-4.5 -1z" />
    <glyph glyph-name="edieresis" unicode="&#xeb;" horiz-adv-x="465" 
d="M264 -8q-65 0 -115 24.5t-79 68t-29 101.5v105q0 51 27.5 94t72.5 69t99 26q52 0 95.5 -24t70 -65t26.5 -95q0 -40 -13 -57.5t-33 -21.5t-42 -4h-220v-30q0 -56 40 -88.5t103 -32.5q37 0 59 10t36 19.5t25 9.5t18.5 -6.5t11.5 -15.5t4 -16q0 -13 -19 -29.5t-54.5 -29
t-83.5 -12.5zM124 269h185q27 0 35.5 6.5t8.5 25.5q0 30 -14.5 55.5t-40.5 41.5t-59 16q-31 0 -57 -14.5t-42 -39.5t-16 -55v-36zM305 587q-17 0 -28.5 12.5t-11.5 29.5t11.5 29t28.5 12t28.5 -12t11.5 -29t-11.5 -29.5t-28.5 -12.5zM175 587q-17 0 -29 12.5t-12 29.5t12 29
t29 12t28.5 -12t11.5 -29t-11.5 -29.5t-28.5 -12.5z" />
    <glyph glyph-name="igrave" unicode="&#xec;" horiz-adv-x="200" 
d="M100 0q-18 0 -29.5 9.5t-11.5 20.5v415q0 13 11.5 21t29.5 8q17 0 29.5 -8t12.5 -21v-415q0 -11 -12.5 -20.5t-29.5 -9.5zM143 583q-2 0 -5 1.5t-6 2.5l-113 58q-14 8 -14 24q0 13 8 23.5t20 10.5q5 0 10 -2l117 -62q13 -6 13 -22q0 -12 -8.5 -23t-21.5 -11z" />
    <glyph glyph-name="iacute" unicode="&#xed;" horiz-adv-x="200" 
d="M100 0q-18 0 -29.5 9.5t-11.5 20.5v415q0 13 11.5 21t29.5 8q17 0 29.5 -8t12.5 -21v-415q0 -11 -12.5 -20.5t-29.5 -9.5zM60 583q-12 0 -21 11t-9 23q0 16 13 22l117 62q6 2 10 2q13 0 20.5 -10.5t7.5 -23.5q0 -16 -14 -24l-113 -58q-3 -1 -5.5 -2.5t-5.5 -1.5z" />
    <glyph glyph-name="icircumflex" unicode="&#xee;" horiz-adv-x="200" 
d="M100 0q-18 0 -29.5 9.5t-11.5 20.5v415q0 13 11.5 21t29.5 8q17 0 29.5 -8t12.5 -21v-415q0 -11 -12.5 -20.5t-29.5 -9.5zM-13 587q-9 0 -16 9t-7 20q0 8 4 15t11 11l104 56q9 5 17 5q9 0 17 -5l104 -55q9 -4 12.5 -12t3.5 -16q0 -11 -6.5 -19.5t-16.5 -8.5q-2 0 -4.5 1
t-5.5 2l-104 56l-104 -56q-2 -1 -4.5 -2t-4.5 -1z" />
    <glyph glyph-name="idieresis" unicode="&#xef;" horiz-adv-x="200" 
d="M100 0q-18 0 -29.5 9.5t-11.5 20.5v415q0 13 11.5 21t29.5 8q17 0 29.5 -8t12.5 -21v-415q0 -11 -12.5 -20.5t-29.5 -9.5zM165 587q-17 0 -28.5 12.5t-11.5 29.5t11.5 29t28.5 12t28.5 -12t11.5 -29t-11.5 -29.5t-28.5 -12.5zM35 587q-17 0 -29 12.5t-12 29.5t12 29
t29 12t28.5 -12t11.5 -29t-11.5 -29.5t-28.5 -12.5z" />
    <glyph glyph-name="eth" unicode="&#xf0;" horiz-adv-x="491" 
d="M239 -8q-40 0 -75.5 16t-63.5 43.5t-43.5 62t-15.5 72.5v102q0 52 24 95.5t64 70t89 26.5q30 0 57.5 -10.5t49 -29t29.5 -42.5q-4 63 -21.5 113t-41.5 86l-76 -44q-4 -3 -11 -3q-11 0 -21 11.5t-10 24.5t12 19l68 40q-19 21 -42 31.5t-44 11.5q-7 4 -13 11.5t-6 19.5
q0 8 4 17.5t14 16.5t26 7q32 0 67 -18t67 -54l67 40q5 3 10 3q13 0 22.5 -11t9.5 -24t-12 -20l-63 -38q35 -55 56 -128.5t21 -153.5v-170q0 -50 -27 -94.5t-72 -72t-99 -27.5zM239 67q32 0 58 17t41.5 44.5t15.5 57.5v105q0 31 -16 56.5t-42.5 41.5t-57.5 16q-32 0 -58 -17
t-41 -44t-15 -56v-102q0 -30 15.5 -57.5t42 -44.5t57.5 -17z" />
    <glyph glyph-name="ntilde" unicode="&#xf1;" horiz-adv-x="502" 
d="M100 0q-18 0 -29.5 9.5t-11.5 20.5v415q0 13 11.5 21t29.5 8q16 0 27 -8t11 -21v-41q16 29 50 52.5t84 23.5q48 0 88 -26.5t64 -69.5t24 -96v-258q0 -15 -13 -22.5t-29 -7.5q-15 0 -28 7.5t-13 22.5v258q0 29 -15.5 56t-41.5 44t-57 17q-27 0 -52 -14.5t-41 -40
t-16 -62.5v-258q0 -11 -12.5 -20.5t-29.5 -9.5zM326 596q-29 0 -49.5 8.5t-40.5 16.5t-46 8q-21 0 -35 -7t-23 -14.5t-18 -7.5q-8 0 -13 5t-7.5 12t-2.5 12q0 17 9.5 28.5t23.5 18.5t29 10.5t25 3.5q28 0 48 -8t40.5 -16.5t46.5 -8.5q22 0 34.5 7t21 13.5t17.5 6.5t14 -5
t7.5 -11.5t2.5 -11.5q0 -18 -9.5 -29.5t-23 -18.5t-27.5 -9.5t-24 -2.5z" />
    <glyph glyph-name="ograve" unicode="&#xf2;" horiz-adv-x="477" 
d="M238 -8q-53 0 -98 27.5t-72 71.5t-27 95v102q0 51 26.5 94.5t71.5 70.5t99 27q53 0 98 -26.5t72.5 -69.5t27.5 -96v-102q0 -50 -27.5 -94.5t-72.5 -72t-98 -27.5zM238 67q32 0 57.5 17t41.5 44.5t16 57.5v102q0 29 -15.5 56t-41.5 44t-58 17t-58 -17t-41 -44t-15 -56
v-102q0 -30 15 -57.5t41 -44.5t58 -17zM281 583q-2 0 -5 1.5t-6 2.5l-113 58q-14 8 -14 24q0 13 8 23.5t20 10.5q5 0 10 -2l117 -62q13 -6 13 -22q0 -12 -8.5 -23t-21.5 -11z" />
    <glyph glyph-name="oacute" unicode="&#xf3;" horiz-adv-x="477" 
d="M238 -8q-53 0 -98 27.5t-72 71.5t-27 95v102q0 51 26.5 94.5t71.5 70.5t99 27q53 0 98 -26.5t72.5 -69.5t27.5 -96v-102q0 -50 -27.5 -94.5t-72.5 -72t-98 -27.5zM238 67q32 0 57.5 17t41.5 44.5t16 57.5v102q0 29 -15.5 56t-41.5 44t-58 17t-58 -17t-41 -44t-15 -56
v-102q0 -30 15 -57.5t41 -44.5t58 -17zM198 583q-12 0 -21 11t-9 23q0 16 13 22l117 62q6 2 10 2q13 0 20.5 -10.5t7.5 -23.5q0 -16 -14 -24l-113 -58q-3 -1 -5.5 -2.5t-5.5 -1.5z" />
    <glyph glyph-name="ocircumflex" unicode="&#xf4;" horiz-adv-x="477" 
d="M238 -8q-53 0 -98 27.5t-72 71.5t-27 95v102q0 51 26.5 94.5t71.5 70.5t99 27q53 0 98 -26.5t72.5 -69.5t27.5 -96v-102q0 -50 -27.5 -94.5t-72.5 -72t-98 -27.5zM238 67q32 0 57.5 17t41.5 44.5t16 57.5v102q0 29 -15.5 56t-41.5 44t-58 17t-58 -17t-41 -44t-15 -56
v-102q0 -30 15 -57.5t41 -44.5t58 -17zM125 587q-9 0 -16 9t-7 20q0 8 4 15t11 11l104 56q9 5 17 5q9 0 17 -5l104 -55q9 -4 12.5 -12t3.5 -16q0 -11 -6.5 -19.5t-16.5 -8.5q-2 0 -4.5 1t-5.5 2l-104 56l-104 -56q-2 -1 -4.5 -2t-4.5 -1z" />
    <glyph glyph-name="otilde" unicode="&#xf5;" horiz-adv-x="477" 
d="M238 -8q-53 0 -98 27.5t-72 71.5t-27 95v102q0 51 26.5 94.5t71.5 70.5t99 27q53 0 98 -26.5t72.5 -69.5t27.5 -96v-102q0 -50 -27.5 -94.5t-72.5 -72t-98 -27.5zM238 67q32 0 57.5 17t41.5 44.5t16 57.5v102q0 29 -15.5 56t-41.5 44t-58 17t-58 -17t-41 -44t-15 -56
v-102q0 -30 15 -57.5t41 -44.5t58 -17zM314 603q-29 0 -49.5 8.5t-40.5 16.5t-46 8q-21 0 -35 -7t-23 -14.5t-18 -7.5q-8 0 -13 5t-7.5 12t-2.5 12q0 17 9.5 28.5t23.5 18.5t29 10.5t25 3.5q28 0 48 -8t40.5 -16.5t46.5 -8.5q22 0 34.5 7t21 13.5t17.5 6.5t14 -5t7.5 -11.5
t2.5 -11.5q0 -18 -9.5 -29.5t-23 -18.5t-27.5 -9.5t-24 -2.5z" />
    <glyph glyph-name="odieresis" unicode="&#xf6;" horiz-adv-x="477" 
d="M238 -8q-53 0 -98 27.5t-72 71.5t-27 95v102q0 51 26.5 94.5t71.5 70.5t99 27q53 0 98 -26.5t72.5 -69.5t27.5 -96v-102q0 -50 -27.5 -94.5t-72.5 -72t-98 -27.5zM238 67q32 0 57.5 17t41.5 44.5t16 57.5v102q0 29 -15.5 56t-41.5 44t-58 17t-58 -17t-41 -44t-15 -56
v-102q0 -30 15 -57.5t41 -44.5t58 -17zM303 587q-17 0 -28.5 12.5t-11.5 29.5t11.5 29t28.5 12t28.5 -12t11.5 -29t-11.5 -29.5t-28.5 -12.5zM173 587q-17 0 -29 12.5t-12 29.5t12 29t29 12t28.5 -12t11.5 -29t-11.5 -29.5t-28.5 -12.5z" />
    <glyph glyph-name="divide" unicode="&#xf7;" horiz-adv-x="459" 
d="M70 252q-13 0 -21.5 9.5t-8.5 24.5t8.5 24.5t21.5 9.5h318q12 0 21.5 -9.5t9.5 -24.5t-9.5 -24.5t-21.5 -9.5h-318zM226 69q-21 0 -37 16t-16 36q0 21 16 36t37 15q20 0 36 -15t16 -36q0 -20 -16 -36t-36 -16zM226 400q-21 0 -37 15t-16 36t16 36.5t37 15.5
q20 0 36 -15.5t16 -36.5t-16 -36t-36 -15z" />
    <glyph glyph-name="oslash" unicode="&#xf8;" horiz-adv-x="477" 
d="M238 -8q-53 0 -98 27.5t-72 71.5t-27 95v102q0 51 26.5 94.5t71.5 70.5t99 27q53 0 98 -26.5t72.5 -69.5t27.5 -96v-102q0 -50 -27.5 -94.5t-72.5 -72t-98 -27.5zM238 67q32 0 57.5 17t41.5 44.5t16 57.5v102q0 29 -15.5 56t-41.5 44t-58 17t-58 -17t-41 -44t-15 -56
v-102q0 -30 15 -57.5t41 -44.5t58 -17zM85 -32q-8 0 -15 6t-7 15q0 7 4 13l31 51l242 398l29 48q6 10 17 10q9 0 16.5 -7t7.5 -17q0 -7 -5 -15l-29 -46l-244 -399l-30 -47q-5 -10 -17 -10z" />
    <glyph glyph-name="ugrave" unicode="&#xf9;" horiz-adv-x="504" 
d="M253 -8q-55 0 -100 27t-72 71t-27 94v260q0 11 12.5 20.5t29.5 9.5t29 -9.5t12 -20.5v-260q0 -29 15.5 -56t41.5 -44t58 -17t58 17t41 44t15 56v261q0 12 13 20.5t29 8.5q19 0 30 -8.5t11 -20.5v-261q0 -51 -26.5 -94.5t-71.5 -70.5t-98 -27zM295 577q-2 0 -5 1.5t-6 2.5
l-113 58q-14 8 -14 24q0 13 8 23.5t20 10.5q5 0 10 -2l117 -62q13 -6 13 -22q0 -12 -8.5 -23t-21.5 -11z" />
    <glyph glyph-name="uacute" unicode="&#xfa;" horiz-adv-x="504" 
d="M253 -8q-55 0 -100 27t-72 71t-27 94v260q0 11 12.5 20.5t29.5 9.5t29 -9.5t12 -20.5v-260q0 -29 15.5 -56t41.5 -44t58 -17t58 17t41 44t15 56v261q0 12 13 20.5t29 8.5q19 0 30 -8.5t11 -20.5v-261q0 -51 -26.5 -94.5t-71.5 -70.5t-98 -27zM212 578q-12 0 -21 11t-9 23
q0 16 13 22l117 62q6 2 10 2q13 0 20.5 -10.5t7.5 -23.5q0 -16 -14 -24l-113 -58q-3 -1 -5.5 -2.5t-5.5 -1.5z" />
    <glyph glyph-name="ucircumflex" unicode="&#xfb;" horiz-adv-x="504" 
d="M253 -8q-55 0 -100 27t-72 71t-27 94v260q0 11 12.5 20.5t29.5 9.5t29 -9.5t12 -20.5v-260q0 -29 15.5 -56t41.5 -44t58 -17t58 17t41 44t15 56v261q0 12 13 20.5t29 8.5q19 0 30 -8.5t11 -20.5v-261q0 -51 -26.5 -94.5t-71.5 -70.5t-98 -27zM139 581q-9 0 -16 9t-7 20
q0 8 4 15t11 11l104 56q9 5 17 5q9 0 17 -5l104 -55q9 -4 12.5 -12t3.5 -16q0 -11 -6.5 -19.5t-16.5 -8.5q-2 0 -4.5 1t-5.5 2l-104 56l-104 -56q-2 -1 -4.5 -2t-4.5 -1z" />
    <glyph glyph-name="udieresis" unicode="&#xfc;" horiz-adv-x="504" 
d="M253 -8q-55 0 -100 27t-72 71t-27 94v260q0 11 12.5 20.5t29.5 9.5t29 -9.5t12 -20.5v-260q0 -29 15.5 -56t41.5 -44t58 -17t58 17t41 44t15 56v261q0 12 13 20.5t29 8.5q19 0 30 -8.5t11 -20.5v-261q0 -51 -26.5 -94.5t-71.5 -70.5t-98 -27zM317 581q-17 0 -28.5 12.5
t-11.5 29.5t11.5 29t28.5 12t28.5 -12t11.5 -29t-11.5 -29.5t-28.5 -12.5zM187 581q-17 0 -29 12.5t-12 29.5t12 29t29 12t28.5 -12t11.5 -29t-11.5 -29.5t-28.5 -12.5z" />
    <glyph glyph-name="yacute" unicode="&#xfd;" horiz-adv-x="435" 
d="M50 -229q-16 0 -27 7.5t-11 29.5q0 14 5.5 25t18.5 11q22 0 44 12.5t42.5 37t35.5 57.5t22 73l-166 405q-3 6 -3 11q0 11 9 20t21.5 14.5t23.5 5.5q8 0 16 -4t10 -13l133 -348l119 348q3 9 10.5 13t15.5 4q10 0 22.5 -5.5t21.5 -14.5t9 -21q0 -6 -2 -10l-153 -407
q-15 -41 -32 -85t-40.5 -81.5t-58.5 -61t-86 -23.5zM177 578q-12 0 -21 11t-9 23q0 16 13 22l117 62q6 2 10 2q13 0 20.5 -10.5t7.5 -23.5q0 -16 -14 -24l-113 -58q-3 -1 -5.5 -2.5t-5.5 -1.5z" />
    <glyph glyph-name="thorn" unicode="&#xfe;" horiz-adv-x="494" 
d="M100 -229q-17 0 -28.5 9.5t-11.5 20.5v930q0 13 11.5 21t28.5 8q18 0 30.5 -8t12.5 -21v-327q16 29 49.5 52.5t80.5 23.5q50 0 91 -26.5t65 -69.5t24 -96v-102q0 -50 -24.5 -94.5t-64.5 -72t-88 -27.5q-45 0 -81 23.5t-52 54.5v-269q0 -11 -12.5 -20.5t-30.5 -9.5z
M256 67q30 0 56 17t42 45t16 57v102q0 29 -16 56t-42 44t-58 17q-27 0 -52.5 -14.5t-42 -40t-16.5 -62.5v-129q0 -13 14.5 -35t40 -39.5t58.5 -17.5z" />
    <glyph glyph-name="ydieresis" unicode="&#xff;" horiz-adv-x="435" 
d="M50 -229q-16 0 -27 7.5t-11 29.5q0 14 5.5 25t18.5 11q22 0 44 12.5t42.5 37t35.5 57.5t22 73l-166 405q-3 6 -3 11q0 11 9 20t21.5 14.5t23.5 5.5q8 0 16 -4t10 -13l133 -348l119 348q3 9 10.5 13t15.5 4q10 0 22.5 -5.5t21.5 -14.5t9 -21q0 -6 -2 -10l-153 -407
q-15 -41 -32 -85t-40.5 -81.5t-58.5 -61t-86 -23.5zM283 581q-17 0 -28.5 12.5t-11.5 29.5t11.5 29t28.5 12t28.5 -12t11.5 -29t-11.5 -29.5t-28.5 -12.5zM153 581q-17 0 -29 12.5t-12 29.5t12 29t29 12t28.5 -12t11.5 -29t-11.5 -29.5t-28.5 -12.5z" />
    <glyph glyph-name="Amacron" unicode="&#x100;" horiz-adv-x="548" 
d="M67 0q-10 0 -22.5 4.5t-20 12.5t-7.5 18q0 4 1 8l205 665q4 15 19 22t32 7q18 0 33 -7.5t19 -21.5l204 -665q2 -4 2 -7q0 -10 -8.5 -18t-20.5 -13t-23 -5t-19 4.5t-11 14.5l-45 149h-263l-43 -149q-3 -10 -11.5 -14.5t-20.5 -4.5zM162 237h224l-112 376zM168 879
q-13 0 -21 8.5t-8 21.5t8 22t21 9h212q11 0 20.5 -9t9.5 -22t-9.5 -21.5t-20.5 -8.5h-212z" />
    <glyph glyph-name="amacron" unicode="&#x101;" horiz-adv-x="447" 
d="M163 -8q-56 0 -95.5 32.5t-39.5 100.5q0 55 30 85.5t82.5 42t121.5 11.5h48v21q0 30 -11 58.5t-34.5 47t-64.5 18.5q-35 0 -55.5 -7t-32.5 -14.5t-21 -7.5q-15 0 -23 14.5t-8 27.5q0 16 22 29t55 21t65 8q70 0 112 -28t60.5 -72t18.5 -94v-256q0 -12 -11.5 -21t-29.5 -9
q-16 0 -27 9t-11 21v40q-26 -30 -63 -54t-88 -24zM189 59q29 0 56.5 16t46 40t18.5 46v52h-35q-42 0 -79.5 -5t-60.5 -21.5t-23 -52.5q0 -39 22 -57t55 -18zM109 626q-13 0 -21 8.5t-8 21.5t8 22t21 9h212q11 0 20.5 -9t9.5 -22t-9.5 -21.5t-20.5 -8.5h-212z" />
    <glyph glyph-name="Abreve" unicode="&#x102;" horiz-adv-x="548" 
d="M67 0q-10 0 -22.5 4.5t-20 12.5t-7.5 18q0 4 1 8l205 665q4 15 19 22t32 7q18 0 33 -7.5t19 -21.5l204 -665q2 -4 2 -7q0 -10 -8.5 -18t-20.5 -13t-23 -5t-19 4.5t-11 14.5l-45 149h-263l-43 -149q-3 -10 -11.5 -14.5t-20.5 -4.5zM162 237h224l-112 376zM274 846
q-41 0 -75.5 28.5t-43.5 69.5q-2 10 4 16.5t16 6.5h10q9 0 14 -5.5t8 -14.5q6 -25 25 -42t42 -17q24 0 43 17t24 42q3 9 8 14.5t14 5.5h9q11 0 17 -6.5t4 -17.5q-9 -40 -43.5 -68.5t-75.5 -28.5z" />
    <glyph glyph-name="abreve" unicode="&#x103;" horiz-adv-x="447" 
d="M163 -8q-56 0 -95.5 32.5t-39.5 100.5q0 55 30 85.5t82.5 42t121.5 11.5h48v21q0 30 -11 58.5t-34.5 47t-64.5 18.5q-35 0 -55.5 -7t-32.5 -14.5t-21 -7.5q-15 0 -23 14.5t-8 27.5q0 16 22 29t55 21t65 8q70 0 112 -28t60.5 -72t18.5 -94v-256q0 -12 -11.5 -21t-29.5 -9
q-16 0 -27 9t-11 21v40q-26 -30 -63 -54t-88 -24zM189 59q29 0 56.5 16t46 40t18.5 46v52h-35q-42 0 -79.5 -5t-60.5 -21.5t-23 -52.5q0 -39 22 -57t55 -18zM216 593q-41 0 -75.5 28.5t-43.5 69.5q-2 10 4 16.5t16 6.5h10q9 0 14 -5.5t8 -14.5q6 -25 25 -42t42 -17
q24 0 43 17t24 42q3 9 8 14.5t14 5.5h9q11 0 17 -6.5t4 -17.5q-9 -40 -43.5 -68.5t-75.5 -28.5z" />
    <glyph glyph-name="Aogonek" unicode="&#x104;" horiz-adv-x="548" 
d="M67 0q-10 0 -22.5 4.5t-20 12.5t-7.5 18q0 4 1 8l205 665q4 15 19 22t32 7q18 0 33 -7.5t19 -21.5l204 -665q2 -4 2 -7q0 -10 -8.5 -18t-20.5 -13t-23 -5t-19 4.5t-11 14.5l-45 149h-263l-43 -149q-3 -10 -11.5 -14.5t-20.5 -4.5zM162 237h224l-112 376zM490 -203
q-28 0 -51 8.5t-37 26t-14 44.5q0 42 23 80t62 67l36 -17q-31 -25 -52.5 -56.5t-21.5 -66.5q0 -24 15.5 -34.5t45.5 -10.5q10 0 15 -6.5t5 -15.5q0 -8 -5 -13.5t-21 -5.5z" />
    <glyph glyph-name="aogonek" unicode="&#x105;" horiz-adv-x="447" 
d="M163 -8q-56 0 -95.5 32.5t-39.5 100.5q0 55 30 85.5t82.5 42t121.5 11.5h48v21q0 30 -11 58.5t-34.5 47t-64.5 18.5q-35 0 -55.5 -7t-32.5 -14.5t-21 -7.5q-15 0 -23 14.5t-8 27.5q0 16 22 29t55 21t65 8q70 0 112 -28t60.5 -72t18.5 -94v-256q0 -12 -11.5 -21t-29.5 -9
q-16 0 -27 9t-11 21v40q-26 -30 -63 -54t-88 -24zM189 59q29 0 56.5 16t46 40t18.5 46v52h-35q-42 0 -79.5 -5t-60.5 -21.5t-23 -52.5q0 -39 22 -57t55 -18zM355 -202q-28 0 -51 8.5t-37 26t-14 44.5q0 42 23 80t62 67l36 -17q-31 -25 -52.5 -56.5t-21.5 -66.5
q0 -24 15.5 -34.5t45.5 -10.5q10 0 15 -6.5t5 -15.5q0 -8 -5 -13.5t-21 -5.5z" />
    <glyph glyph-name="Cacute" unicode="&#x106;" horiz-adv-x="532" 
d="M278 -6q-58 0 -107 21.5t-78 69.5t-29 127v301q0 79 29.5 127t78.5 69.5t107 21.5q68 0 116 -23t74 -62.5t26 -88.5q0 -28 -10.5 -37t-31.5 -9q-20 0 -30.5 8t-11.5 21q-1 15 -5.5 34.5t-18 38t-39 30.5t-67.5 12q-64 0 -98.5 -34.5t-34.5 -107.5v-301q0 -73 35 -107.5
t101 -34.5q42 0 66.5 12t36.5 30t17 38.5t7 38.5q1 15 12 22t30 7q21 0 31.5 -9.5t10.5 -37.5q0 -49 -26.5 -89.5t-75 -64t-115.5 -23.5zM234 835q-12 0 -21 11t-9 23q0 16 13 22l117 62q6 2 10 2q13 0 20.5 -10.5t7.5 -23.5q0 -16 -14 -24l-113 -58q-3 -1 -5.5 -2.5
t-5.5 -1.5z" />
    <glyph glyph-name="cacute" unicode="&#x107;" horiz-adv-x="418" 
d="M243 -8q-69 0 -113.5 26t-66 69.5t-21.5 98.5v100q0 54 21.5 98t66 70t112.5 26q44 0 77 -11t51 -27t18 -31q0 -8 -4.5 -17.5t-12 -16.5t-17.5 -7t-21.5 9t-31 17.5t-54.5 8.5q-61 0 -91.5 -32t-30.5 -87v-100q0 -55 30.5 -87t92.5 -32q36 0 56 9.5t31.5 18t22.5 8.5
t19 -6.5t12.5 -15.5t4.5 -18q0 -15 -19 -31.5t-53 -28t-79 -11.5zM198 584q-12 0 -21 11t-9 23q0 16 13 22l117 62q6 2 10 2q13 0 20.5 -10.5t7.5 -23.5q0 -16 -14 -24l-113 -58q-3 -1 -5.5 -2.5t-5.5 -1.5z" />
    <glyph glyph-name="Ccircumflex" unicode="&#x108;" horiz-adv-x="532" 
d="M278 -6q-58 0 -107 21.5t-78 69.5t-29 127v301q0 79 29.5 127t78.5 69.5t107 21.5q68 0 116 -23t74 -62.5t26 -88.5q0 -28 -10.5 -37t-31.5 -9q-20 0 -30.5 8t-11.5 21q-1 15 -5.5 34.5t-18 38t-39 30.5t-67.5 12q-64 0 -98.5 -34.5t-34.5 -107.5v-301q0 -73 35 -107.5
t101 -34.5q42 0 66.5 12t36.5 30t17 38.5t7 38.5q1 15 12 22t30 7q21 0 31.5 -9.5t10.5 -37.5q0 -49 -26.5 -89.5t-75 -64t-115.5 -23.5zM162 839q-9 0 -16 9t-7 20q0 8 4 15t11 11l104 56q9 5 17 5q9 0 17 -5l104 -55q9 -4 12.5 -12t3.5 -16q0 -11 -6.5 -19.5t-16.5 -8.5
q-2 0 -4.5 1t-5.5 2l-104 56l-104 -56q-2 -1 -4.5 -2t-4.5 -1z" />
    <glyph glyph-name="ccircumflex" unicode="&#x109;" horiz-adv-x="418" 
d="M243 -8q-69 0 -113.5 26t-66 69.5t-21.5 98.5v100q0 54 21.5 98t66 70t112.5 26q44 0 77 -11t51 -27t18 -31q0 -8 -4.5 -17.5t-12 -16.5t-17.5 -7t-21.5 9t-31 17.5t-54.5 8.5q-61 0 -91.5 -32t-30.5 -87v-100q0 -55 30.5 -87t92.5 -32q36 0 56 9.5t31.5 18t22.5 8.5
t19 -6.5t12.5 -15.5t4.5 -18q0 -15 -19 -31.5t-53 -28t-79 -11.5zM125 588q-9 0 -16 9t-7 20q0 8 4 15t11 11l104 56q9 5 17 5q9 0 17 -5l104 -55q9 -4 12.5 -12t3.5 -16q0 -11 -6.5 -19.5t-16.5 -8.5q-2 0 -4.5 1t-5.5 2l-104 56l-104 -56q-2 -1 -4.5 -2t-4.5 -1z" />
    <glyph glyph-name="Cdotaccent" unicode="&#x10a;" horiz-adv-x="532" 
d="M278 -6q-58 0 -107 21.5t-78 69.5t-29 127v301q0 79 29.5 127t78.5 69.5t107 21.5q68 0 116 -23t74 -62.5t26 -88.5q0 -28 -10.5 -37t-31.5 -9q-20 0 -30.5 8t-11.5 21q-1 15 -5.5 34.5t-18 38t-39 30.5t-67.5 12q-64 0 -98.5 -34.5t-34.5 -107.5v-301q0 -73 35 -107.5
t101 -34.5q42 0 66.5 12t36.5 30t17 38.5t7 38.5q1 15 12 22t30 7q21 0 31.5 -9.5t10.5 -37.5q0 -49 -26.5 -89.5t-75 -64t-115.5 -23.5zM275 840q-18 0 -30.5 13t-12.5 31t12.5 30.5t30.5 12.5q17 0 29.5 -12.5t12.5 -30.5t-12.5 -31t-29.5 -13z" />
    <glyph glyph-name="cdotaccent" unicode="&#x10b;" horiz-adv-x="418" 
d="M243 -8q-69 0 -113.5 26t-66 69.5t-21.5 98.5v100q0 54 21.5 98t66 70t112.5 26q44 0 77 -11t51 -27t18 -31q0 -8 -4.5 -17.5t-12 -16.5t-17.5 -7t-21.5 9t-31 17.5t-54.5 8.5q-61 0 -91.5 -32t-30.5 -87v-100q0 -55 30.5 -87t92.5 -32q36 0 56 9.5t31.5 18t22.5 8.5
t19 -6.5t12.5 -15.5t4.5 -18q0 -15 -19 -31.5t-53 -28t-79 -11.5zM239 589q-18 0 -30.5 13t-12.5 31t12.5 30.5t30.5 12.5q17 0 29.5 -12.5t12.5 -30.5t-12.5 -31t-29.5 -13z" />
    <glyph glyph-name="Ccaron" unicode="&#x10c;" horiz-adv-x="532" 
d="M278 -6q-58 0 -107 21.5t-78 69.5t-29 127v301q0 79 29.5 127t78.5 69.5t107 21.5q68 0 116 -23t74 -62.5t26 -88.5q0 -28 -10.5 -37t-31.5 -9q-20 0 -30.5 8t-11.5 21q-1 15 -5.5 34.5t-18 38t-39 30.5t-67.5 12q-64 0 -98.5 -34.5t-34.5 -107.5v-301q0 -73 35 -107.5
t101 -34.5q42 0 66.5 12t36.5 30t17 38.5t7 38.5q1 15 12 22t30 7q21 0 31.5 -9.5t10.5 -37.5q0 -49 -26.5 -89.5t-75 -64t-115.5 -23.5zM275 836q-10 0 -19 9l-102 83q-7 6 -10.5 12.5t-3.5 14.5q0 10 6 18.5t15 8.5q7 0 14 -6l100 -84l101 84q6 6 14 6q10 0 15.5 -8.5
t5.5 -18.5q0 -8 -3.5 -14.5t-11.5 -12.5l-101 -83q-11 -9 -20 -9z" />
    <glyph glyph-name="ccaron" unicode="&#x10d;" horiz-adv-x="418" 
d="M243 -8q-69 0 -113.5 26t-66 69.5t-21.5 98.5v100q0 54 21.5 98t66 70t112.5 26q44 0 77 -11t51 -27t18 -31q0 -8 -4.5 -17.5t-12 -16.5t-17.5 -7t-21.5 9t-31 17.5t-54.5 8.5q-61 0 -91.5 -32t-30.5 -87v-100q0 -55 30.5 -87t92.5 -32q36 0 56 9.5t31.5 18t22.5 8.5
t19 -6.5t12.5 -15.5t4.5 -18q0 -15 -19 -31.5t-53 -28t-79 -11.5zM238 585q-10 0 -19 9l-102 83q-7 6 -10.5 12.5t-3.5 14.5q0 10 6 18.5t15 8.5q7 0 14 -6l100 -84l101 84q6 6 14 6q10 0 15.5 -8.5t5.5 -18.5q0 -8 -3.5 -14.5t-11.5 -12.5l-101 -83q-11 -9 -20 -9z" />
    <glyph glyph-name="Dcaron" unicode="&#x10e;" horiz-adv-x="566" 
d="M109 0q-17 0 -27.5 8.5t-10.5 20.5v673q0 12 10.5 20.5t27.5 8.5h177q61 0 110 -21.5t77.5 -69t28.5 -127.5v-295q0 -80 -28.5 -127.5t-77.5 -69t-110 -21.5h-177zM155 76h131q62 0 97 34.5t35 107.5v295q0 73 -35 107.5t-97 34.5h-131v-579zM283 836q-10 0 -19 9
l-102 83q-7 6 -10.5 12.5t-3.5 14.5q0 10 6 18.5t15 8.5q7 0 14 -6l100 -84l101 84q6 6 14 6q10 0 15.5 -8.5t5.5 -18.5q0 -8 -3.5 -14.5t-11.5 -12.5l-101 -83q-11 -9 -20 -9z" />
    <glyph glyph-name="dcaron" unicode="&#x10f;" horiz-adv-x="494" 
d="M218 -8q-47 0 -87.5 27.5t-65 72t-24.5 94.5v102q0 53 24.5 96t65 69.5t89.5 26.5q48 0 81.5 -23.5t49.5 -52.5v327q0 13 12.5 21t30.5 8t29 -8t11 -21v-701q0 -11 -11 -20.5t-29 -9.5q-16 0 -27.5 9.5t-11.5 20.5v40q-15 -31 -53 -54.5t-84 -23.5zM238 67
q32 0 57.5 17.5t40.5 39.5t15 35v129q0 37 -16.5 62.5t-42.5 40t-53 14.5q-32 0 -58 -17t-41.5 -44t-15.5 -56v-102q0 -29 15.5 -57t41.5 -45t57 -17zM530 554q-10 0 -20 6t-10 18q0 6 2 10l21 52q-14 7 -23 20t-9 29q0 21 15 36.5t37 15.5q21 0 36.5 -15.5t15.5 -36.5
q0 -5 -2.5 -15t-7.5 -24t-13.5 -35t-21.5 -48q-3 -7 -9 -10t-11 -3z" />
    <glyph glyph-name="Dcroat" unicode="&#x110;" horiz-adv-x="574" 
d="M118 0q-17 0 -27.5 8.5t-10.5 20.5v322h-57q-12 0 -18.5 10t-6.5 22q0 13 6.5 23t18.5 10h57v286q0 12 10.5 20.5t27.5 8.5h177q60 0 109.5 -21.5t78 -69t28.5 -127.5v-295q0 -80 -28.5 -127.5t-78 -69t-109.5 -21.5h-177zM164 76h131q62 0 97 34.5t35 107.5v295
q0 73 -35 107.5t-97 34.5h-131v-239h103q12 0 19 -10t7 -23t-7 -22.5t-19 -9.5h-103v-275z" />
    <glyph glyph-name="dcroat" unicode="&#x111;" horiz-adv-x="494" 
d="M218 -8q-47 0 -87.5 27.5t-65 72t-24.5 94.5v102q0 53 24.5 96t65 69.5t89.5 26.5q48 0 81.5 -23.5t49.5 -52.5v164h-107q-12 0 -18.5 9.5t-6.5 22.5t6.5 23t18.5 10h107v98q0 13 12.5 21t30.5 8t29 -8t11 -21v-98h43q12 0 19 -10t7 -23t-7 -22.5t-19 -9.5h-43v-538
q0 -11 -11 -20.5t-29 -9.5q-16 0 -27.5 9.5t-11.5 20.5v40q-15 -31 -53 -54.5t-84 -23.5zM238 67q32 0 57.5 17.5t40.5 39.5t15 35v129q0 37 -16.5 62.5t-42.5 40t-53 14.5q-32 0 -58 -17t-41.5 -44t-15.5 -56v-102q0 -29 15.5 -57t41.5 -45t57 -17z" />
    <glyph glyph-name="Emacron" unicode="&#x112;" horiz-adv-x="514" 
d="M109 0q-14 0 -26 7.5t-12 22.5v671q0 15 12 22.5t26 7.5h356q16 0 22.5 -12t6.5 -25q0 -15 -7.5 -27t-21.5 -12h-310v-254h156q14 0 21.5 -11t7.5 -25q0 -12 -6.5 -23t-22.5 -11h-156v-255h310q14 0 21.5 -11.5t7.5 -27.5q0 -13 -6.5 -25t-22.5 -12h-356zM174 879
q-13 0 -21 8.5t-8 21.5t8 22t21 9h212q11 0 20.5 -9t9.5 -22t-9.5 -21.5t-20.5 -8.5h-212z" />
    <glyph glyph-name="emacron" unicode="&#x113;" horiz-adv-x="465" 
d="M264 -8q-65 0 -115 24.5t-79 68t-29 101.5v105q0 51 27.5 94t72.5 69t99 26q52 0 95.5 -24t70 -65t26.5 -95q0 -40 -13 -57.5t-33 -21.5t-42 -4h-220v-30q0 -56 40 -88.5t103 -32.5q37 0 59 10t36 19.5t25 9.5t18.5 -6.5t11.5 -15.5t4 -16q0 -13 -19 -29.5t-54.5 -29
t-83.5 -12.5zM124 269h185q27 0 35.5 6.5t8.5 25.5q0 30 -14.5 55.5t-40.5 41.5t-59 16q-31 0 -57 -14.5t-42 -39.5t-16 -55v-36zM133 628q-13 0 -21 8.5t-8 21.5t8 22t21 9h212q11 0 20.5 -9t9.5 -22t-9.5 -21.5t-20.5 -8.5h-212z" />
    <glyph glyph-name="Ebreve" unicode="&#x114;" horiz-adv-x="514" 
d="M109 0q-14 0 -26 7.5t-12 22.5v671q0 15 12 22.5t26 7.5h356q16 0 22.5 -12t6.5 -25q0 -15 -7.5 -27t-21.5 -12h-310v-254h156q14 0 21.5 -11t7.5 -25q0 -12 -6.5 -23t-22.5 -11h-156v-255h310q14 0 21.5 -11.5t7.5 -27.5q0 -13 -6.5 -25t-22.5 -12h-356zM280 846
q-41 0 -75.5 28.5t-43.5 69.5q-2 10 4 16.5t16 6.5h10q9 0 14 -5.5t8 -14.5q6 -25 25 -42t42 -17q24 0 43 17t24 42q3 9 8 14.5t14 5.5h9q11 0 17 -6.5t4 -17.5q-9 -40 -43.5 -68.5t-75.5 -28.5z" />
    <glyph glyph-name="ebreve" unicode="&#x115;" horiz-adv-x="465" 
d="M264 -8q-65 0 -115 24.5t-79 68t-29 101.5v105q0 51 27.5 94t72.5 69t99 26q52 0 95.5 -24t70 -65t26.5 -95q0 -40 -13 -57.5t-33 -21.5t-42 -4h-220v-30q0 -56 40 -88.5t103 -32.5q37 0 59 10t36 19.5t25 9.5t18.5 -6.5t11.5 -15.5t4 -16q0 -13 -19 -29.5t-54.5 -29
t-83.5 -12.5zM124 269h185q27 0 35.5 6.5t8.5 25.5q0 30 -14.5 55.5t-40.5 41.5t-59 16q-31 0 -57 -14.5t-42 -39.5t-16 -55v-36zM240 595q-41 0 -75.5 28.5t-43.5 69.5q-2 10 4 16.5t16 6.5h10q9 0 14 -5.5t8 -14.5q6 -25 25 -42t42 -17q24 0 43 17t24 42q3 9 8 14.5
t14 5.5h9q11 0 17 -6.5t4 -17.5q-9 -40 -43.5 -68.5t-75.5 -28.5z" />
    <glyph glyph-name="Edotaccent" unicode="&#x116;" horiz-adv-x="514" 
d="M109 0q-14 0 -26 7.5t-12 22.5v671q0 15 12 22.5t26 7.5h356q16 0 22.5 -12t6.5 -25q0 -15 -7.5 -27t-21.5 -12h-310v-254h156q14 0 21.5 -11t7.5 -25q0 -12 -6.5 -23t-22.5 -11h-156v-255h310q14 0 21.5 -11.5t7.5 -27.5q0 -13 -6.5 -25t-22.5 -12h-356zM281 840
q-18 0 -30.5 13t-12.5 31t12.5 30.5t30.5 12.5q17 0 29.5 -12.5t12.5 -30.5t-12.5 -31t-29.5 -13z" />
    <glyph glyph-name="edotaccent" unicode="&#x117;" horiz-adv-x="465" 
d="M264 -8q-65 0 -115 24.5t-79 68t-29 101.5v105q0 51 27.5 94t72.5 69t99 26q52 0 95.5 -24t70 -65t26.5 -95q0 -40 -13 -57.5t-33 -21.5t-42 -4h-220v-30q0 -56 40 -88.5t103 -32.5q37 0 59 10t36 19.5t25 9.5t18.5 -6.5t11.5 -15.5t4 -16q0 -13 -19 -29.5t-54.5 -29
t-83.5 -12.5zM124 269h185q27 0 35.5 6.5t8.5 25.5q0 30 -14.5 55.5t-40.5 41.5t-59 16q-31 0 -57 -14.5t-42 -39.5t-16 -55v-36zM240 588q-18 0 -30.5 13t-12.5 31t12.5 30.5t30.5 12.5q17 0 29.5 -12.5t12.5 -30.5t-12.5 -31t-29.5 -13z" />
    <glyph glyph-name="Eogonek" unicode="&#x118;" horiz-adv-x="514" 
d="M109 0q-14 0 -26 7.5t-12 22.5v671q0 15 12 22.5t26 7.5h356q16 0 22.5 -12t6.5 -25q0 -15 -7.5 -27t-21.5 -12h-310v-254h156q14 0 21.5 -11t7.5 -25q0 -12 -6.5 -23t-22.5 -11h-156v-255h310q14 0 21.5 -11.5t7.5 -27.5q0 -13 -6.5 -25t-22.5 -12h-356zM460 -204
q-28 0 -51 8.5t-37 26t-14 44.5q0 42 23 80t62 67l36 -17q-31 -25 -52.5 -56.5t-21.5 -66.5q0 -24 15.5 -34.5t45.5 -10.5q10 0 15 -6.5t5 -15.5q0 -8 -5 -13.5t-21 -5.5z" />
    <glyph glyph-name="eogonek" unicode="&#x119;" horiz-adv-x="465" 
d="M264 -8q-65 0 -115 24.5t-79 68t-29 101.5v105q0 51 27.5 94t72.5 69t99 26q52 0 95.5 -24t70 -65t26.5 -95q0 -40 -13 -57.5t-33 -21.5t-42 -4h-220v-30q0 -56 40 -88.5t103 -32.5q37 0 59 10t36 19.5t25 9.5t18.5 -6.5t11.5 -15.5t4 -16q0 -13 -19 -29.5t-54.5 -29
t-83.5 -12.5zM124 269h185q27 0 35.5 6.5t8.5 25.5q0 30 -14.5 55.5t-40.5 41.5t-59 16q-31 0 -57 -14.5t-42 -39.5t-16 -55v-36zM359 -186q-28 0 -51 8.5t-37 26t-14 44.5q0 42 23 80t62 67l36 -17q-31 -25 -52.5 -56.5t-21.5 -66.5q0 -24 15.5 -34.5t45.5 -10.5
q10 0 15 -6.5t5 -15.5q0 -8 -5 -13.5t-21 -5.5z" />
    <glyph glyph-name="Ecaron" unicode="&#x11a;" horiz-adv-x="514" 
d="M109 0q-14 0 -26 7.5t-12 22.5v671q0 15 12 22.5t26 7.5h356q16 0 22.5 -12t6.5 -25q0 -15 -7.5 -27t-21.5 -12h-310v-254h156q14 0 21.5 -11t7.5 -25q0 -12 -6.5 -23t-22.5 -11h-156v-255h310q14 0 21.5 -11.5t7.5 -27.5q0 -13 -6.5 -25t-22.5 -12h-356zM280 836
q-10 0 -19 9l-102 83q-7 6 -10.5 12.5t-3.5 14.5q0 10 6 18.5t15 8.5q7 0 14 -6l100 -84l101 84q6 6 14 6q10 0 15.5 -8.5t5.5 -18.5q0 -8 -3.5 -14.5t-11.5 -12.5l-101 -83q-11 -9 -20 -9z" />
    <glyph glyph-name="ecaron" unicode="&#x11b;" horiz-adv-x="465" 
d="M264 -8q-65 0 -115 24.5t-79 68t-29 101.5v105q0 51 27.5 94t72.5 69t99 26q52 0 95.5 -24t70 -65t26.5 -95q0 -40 -13 -57.5t-33 -21.5t-42 -4h-220v-30q0 -56 40 -88.5t103 -32.5q37 0 59 10t36 19.5t25 9.5t18.5 -6.5t11.5 -15.5t4 -16q0 -13 -19 -29.5t-54.5 -29
t-83.5 -12.5zM124 269h185q27 0 35.5 6.5t8.5 25.5q0 30 -14.5 55.5t-40.5 41.5t-59 16q-31 0 -57 -14.5t-42 -39.5t-16 -55v-36zM240 584q-10 0 -19 9l-102 83q-7 6 -10.5 12.5t-3.5 14.5q0 10 6 18.5t15 8.5q7 0 14 -6l100 -84l101 84q6 6 14 6q10 0 15.5 -8.5t5.5 -18.5
q0 -8 -3.5 -14.5t-11.5 -12.5l-101 -83q-11 -9 -20 -9z" />
    <glyph glyph-name="Gcircumflex" unicode="&#x11c;" horiz-adv-x="548" 
d="M279 -6q-61 0 -109.5 21.5t-77 69.5t-28.5 127v301q0 79 28.5 127t77 69.5t107.5 21.5q66 0 114.5 -22.5t76 -62.5t27.5 -94q0 -24 -11 -32.5t-31 -8.5q-17 0 -29 6.5t-13 22.5q-4 35 -18 60.5t-42 40t-72 14.5q-62 0 -96.5 -34.5t-34.5 -107.5v-301q0 -73 34.5 -107.5
t96.5 -34.5t97 34.5t35 107.5v102h-119q-14 0 -21.5 11t-7.5 24t7.5 24t21.5 11h174q14 0 21.5 -9t7.5 -22v-141q0 -79 -28.5 -127t-77.5 -69.5t-110 -21.5zM166 839q-9 0 -16 9t-7 20q0 8 4 15t11 11l104 56q9 5 17 5q9 0 17 -5l104 -55q9 -4 12.5 -12t3.5 -16
q0 -11 -6.5 -19.5t-16.5 -8.5q-2 0 -4.5 1t-5.5 2l-104 56l-104 -56q-2 -1 -4.5 -2t-4.5 -1z" />
    <glyph glyph-name="gcircumflex" unicode="&#x11d;" horiz-adv-x="459" 
d="M232 -229q-59 0 -106 16.5t-74.5 47t-27.5 71.5q0 42 24.5 68.5t56.5 40.5q-22 8 -36.5 23.5t-14.5 43.5t14 44.5t36 29.5q-27 22 -42 54.5t-15 71.5v33q0 49 22 86t62.5 58t94.5 21q35 0 64.5 -10.5t51.5 -28.5q16 33 33.5 49t34.5 16q18 0 27 -10t9 -21q0 -8 -5 -14
t-12 -9q-11 -3 -25.5 -12t-27.5 -30q15 -19 22.5 -43.5t7.5 -51.5v-33q0 -47 -23 -85t-64 -59.5t-94 -21.5q-41 0 -73 15q-10 -6 -18 -13.5t-8 -20.5q0 -21 22.5 -30t57.5 -13t74 -9t74 -17.5t57.5 -38.5t22.5 -72q0 -49 -27 -81.5t-72.5 -48.5t-102.5 -16zM230 -171
q57 0 90 23.5t33 62.5q0 28 -17 43.5t-44 23t-56.5 10t-53.5 5.5q-32 -10 -55.5 -30t-23.5 -52q0 -39 35 -62.5t92 -23.5zM227 173q46 0 72 31t26 78v33q0 46 -26 77t-73 31t-72.5 -31t-25.5 -77v-32q0 -47 26 -78.5t73 -31.5zM106 587q-9 0 -16 9t-7 20q0 8 4 15t11 11
l104 56q9 5 17 5q9 0 17 -5l104 -55q9 -4 12.5 -12t3.5 -16q0 -11 -6.5 -19.5t-16.5 -8.5q-2 0 -4.5 1t-5.5 2l-104 56l-104 -56q-2 -1 -4.5 -2t-4.5 -1z" />
    <glyph glyph-name="Gbreve" unicode="&#x11e;" horiz-adv-x="548" 
d="M279 -6q-61 0 -109.5 21.5t-77 69.5t-28.5 127v301q0 79 28.5 127t77 69.5t107.5 21.5q66 0 114.5 -22.5t76 -62.5t27.5 -94q0 -24 -11 -32.5t-31 -8.5q-17 0 -29 6.5t-13 22.5q-4 35 -18 60.5t-42 40t-72 14.5q-62 0 -96.5 -34.5t-34.5 -107.5v-301q0 -73 34.5 -107.5
t96.5 -34.5t97 34.5t35 107.5v102h-119q-14 0 -21.5 11t-7.5 24t7.5 24t21.5 11h174q14 0 21.5 -9t7.5 -22v-141q0 -79 -28.5 -127t-77.5 -69.5t-110 -21.5zM279 846q-41 0 -75.5 28.5t-43.5 69.5q-2 10 4 16.5t16 6.5h10q9 0 14 -5.5t8 -14.5q6 -25 25 -42t42 -17
q24 0 43 17t24 42q3 9 8 14.5t14 5.5h9q11 0 17 -6.5t4 -17.5q-9 -40 -43.5 -68.5t-75.5 -28.5z" />
    <glyph glyph-name="gbreve" unicode="&#x11f;" horiz-adv-x="459" 
d="M232 -229q-59 0 -106 16.5t-74.5 47t-27.5 71.5q0 42 24.5 68.5t56.5 40.5q-22 8 -36.5 23.5t-14.5 43.5t14 44.5t36 29.5q-27 22 -42 54.5t-15 71.5v33q0 49 22 86t62.5 58t94.5 21q35 0 64.5 -10.5t51.5 -28.5q16 33 33.5 49t34.5 16q18 0 27 -10t9 -21q0 -8 -5 -14
t-12 -9q-11 -3 -25.5 -12t-27.5 -30q15 -19 22.5 -43.5t7.5 -51.5v-33q0 -47 -23 -85t-64 -59.5t-94 -21.5q-41 0 -73 15q-10 -6 -18 -13.5t-8 -20.5q0 -21 22.5 -30t57.5 -13t74 -9t74 -17.5t57.5 -38.5t22.5 -72q0 -49 -27 -81.5t-72.5 -48.5t-102.5 -16zM230 -171
q57 0 90 23.5t33 62.5q0 28 -17 43.5t-44 23t-56.5 10t-53.5 5.5q-32 -10 -55.5 -30t-23.5 -52q0 -39 35 -62.5t92 -23.5zM227 173q46 0 72 31t26 78v33q0 46 -26 77t-73 31t-72.5 -31t-25.5 -77v-32q0 -47 26 -78.5t73 -31.5zM219 595q-41 0 -75.5 28.5t-43.5 69.5
q-2 10 4 16.5t16 6.5h10q9 0 14 -5.5t8 -14.5q6 -25 25 -42t42 -17q24 0 43 17t24 42q3 9 8 14.5t14 5.5h9q11 0 17 -6.5t4 -17.5q-9 -40 -43.5 -68.5t-75.5 -28.5z" />
    <glyph glyph-name="Gdotaccent" unicode="&#x120;" horiz-adv-x="548" 
d="M279 -6q-61 0 -109.5 21.5t-77 69.5t-28.5 127v301q0 79 28.5 127t77 69.5t107.5 21.5q66 0 114.5 -22.5t76 -62.5t27.5 -94q0 -24 -11 -32.5t-31 -8.5q-17 0 -29 6.5t-13 22.5q-4 35 -18 60.5t-42 40t-72 14.5q-62 0 -96.5 -34.5t-34.5 -107.5v-301q0 -73 34.5 -107.5
t96.5 -34.5t97 34.5t35 107.5v102h-119q-14 0 -21.5 11t-7.5 24t7.5 24t21.5 11h174q14 0 21.5 -9t7.5 -22v-141q0 -79 -28.5 -127t-77.5 -69.5t-110 -21.5zM279 840q-18 0 -30.5 13t-12.5 31t12.5 30.5t30.5 12.5q17 0 29.5 -12.5t12.5 -30.5t-12.5 -31t-29.5 -13z" />
    <glyph glyph-name="gdotaccent" unicode="&#x121;" horiz-adv-x="459" 
d="M232 -229q-59 0 -106 16.5t-74.5 47t-27.5 71.5q0 42 24.5 68.5t56.5 40.5q-22 8 -36.5 23.5t-14.5 43.5t14 44.5t36 29.5q-27 22 -42 54.5t-15 71.5v33q0 49 22 86t62.5 58t94.5 21q35 0 64.5 -10.5t51.5 -28.5q16 33 33.5 49t34.5 16q18 0 27 -10t9 -21q0 -8 -5 -14
t-12 -9q-11 -3 -25.5 -12t-27.5 -30q15 -19 22.5 -43.5t7.5 -51.5v-33q0 -47 -23 -85t-64 -59.5t-94 -21.5q-41 0 -73 15q-10 -6 -18 -13.5t-8 -20.5q0 -21 22.5 -30t57.5 -13t74 -9t74 -17.5t57.5 -38.5t22.5 -72q0 -49 -27 -81.5t-72.5 -48.5t-102.5 -16zM230 -171
q57 0 90 23.5t33 62.5q0 28 -17 43.5t-44 23t-56.5 10t-53.5 5.5q-32 -10 -55.5 -30t-23.5 -52q0 -39 35 -62.5t92 -23.5zM227 173q46 0 72 31t26 78v33q0 46 -26 77t-73 31t-72.5 -31t-25.5 -77v-32q0 -47 26 -78.5t73 -31.5zM220 588q-18 0 -30.5 13t-12.5 31t12.5 30.5
t30.5 12.5q17 0 29.5 -12.5t12.5 -30.5t-12.5 -31t-29.5 -13z" />
    <glyph glyph-name="uni0122" unicode="&#x122;" horiz-adv-x="548" 
d="M279 -6q-61 0 -109.5 21.5t-77 69.5t-28.5 127v301q0 79 28.5 127t77 69.5t107.5 21.5q66 0 114.5 -22.5t76 -62.5t27.5 -94q0 -24 -11 -32.5t-31 -8.5q-17 0 -29 6.5t-13 22.5q-4 35 -18 60.5t-42 40t-72 14.5q-62 0 -96.5 -34.5t-34.5 -107.5v-301q0 -73 34.5 -107.5
t96.5 -34.5t97 34.5t35 107.5v102h-119q-14 0 -21.5 11t-7.5 24t7.5 24t21.5 11h174q14 0 21.5 -9t7.5 -22v-141q0 -79 -28.5 -127t-77.5 -69.5t-110 -21.5zM219 -168q-12 0 -21 11t-9 23q0 15 13 22l117 62q6 2 10 2q13 0 21 -11t8 -23q0 -17 -14 -24l-113 -59l-6 -2t-6 -1
z" />
    <glyph glyph-name="uni0123" unicode="&#x123;" horiz-adv-x="459" 
d="M232 -229q-59 0 -106 16.5t-74.5 47t-27.5 71.5q0 42 24.5 68.5t56.5 40.5q-22 8 -36.5 23.5t-14.5 43.5t14 44.5t36 29.5q-27 22 -42 54.5t-15 71.5v33q0 49 22 86t62.5 58t94.5 21q35 0 64.5 -10.5t51.5 -28.5q16 33 33.5 49t34.5 16q18 0 27 -10t9 -21q0 -8 -5 -14
t-12 -9q-11 -3 -25.5 -12t-27.5 -30q15 -19 22.5 -43.5t7.5 -51.5v-33q0 -47 -23 -85t-64 -59.5t-94 -21.5q-41 0 -73 15q-10 -6 -18 -13.5t-8 -20.5q0 -21 22.5 -30t57.5 -13t74 -9t74 -17.5t57.5 -38.5t22.5 -72q0 -49 -27 -81.5t-72.5 -48.5t-102.5 -16zM230 -171
q57 0 90 23.5t33 62.5q0 28 -17 43.5t-44 23t-56.5 10t-53.5 5.5q-32 -10 -55.5 -30t-23.5 -52q0 -39 35 -62.5t92 -23.5zM227 173q46 0 72 31t26 78v33q0 46 -26 77t-73 31t-72.5 -31t-25.5 -77v-32q0 -47 26 -78.5t73 -31.5zM183 584q-12 0 -21 11t-9 23q0 16 13 22
l117 62q6 2 10 2q13 0 20.5 -10.5t7.5 -23.5q0 -16 -14 -24l-113 -58q-3 -1 -5.5 -2.5t-5.5 -1.5z" />
    <glyph glyph-name="Hcircumflex" unicode="&#x124;" horiz-adv-x="582" 
d="M113 0q-15 0 -28.5 7.5t-13.5 22.5v672q0 15 13.5 22t28.5 7q16 0 29 -7t13 -22v-288h271v288q0 15 13.5 22t28.5 7q16 0 29 -7t13 -22v-672q0 -15 -13 -22.5t-29 -7.5q-15 0 -28.5 7.5t-13.5 22.5v314h-271v-314q0 -15 -13 -22.5t-29 -7.5zM178 839q-9 0 -16 9t-7 20
q0 8 4 15t11 11l104 56q9 5 17 5q9 0 17 -5l104 -55q9 -4 12.5 -12t3.5 -16q0 -11 -6.5 -19.5t-16.5 -8.5q-2 0 -4.5 1t-5.5 2l-104 56l-104 -56q-2 -1 -4.5 -2t-4.5 -1z" />
    <glyph glyph-name="hcircumflex" unicode="&#x125;" horiz-adv-x="503" 
d="M101 0q-18 0 -29.5 9.5t-11.5 20.5v701q0 13 11.5 21t29.5 8q17 0 29.5 -8t12.5 -21v-327q16 29 48.5 52.5t81.5 23.5q48 0 88 -26.5t64 -69.5t24 -96v-258q0 -15 -13 -22.5t-29 -7.5q-15 0 -28 7.5t-13 22.5v258q0 29 -16 56t-41.5 44t-56.5 17q-27 0 -52 -14.5t-41 -40
t-16 -62.5v-258q0 -11 -12.5 -20.5t-29.5 -9.5zM-18 861q-9 0 -16 9t-7 20q0 8 4 15t11 11l104 56q9 5 17 5q9 0 17 -5l104 -55q9 -4 12.5 -12t3.5 -16q0 -11 -6.5 -19.5t-16.5 -8.5q-2 0 -4.5 1t-5.5 2l-104 56l-104 -56q-2 -1 -4.5 -2t-4.5 -1z" />
    <glyph glyph-name="Hbar" unicode="&#x126;" horiz-adv-x="583" 
d="M114 0q-16 0 -29 7.5t-13 22.5v509h-28q-12 0 -18.5 9t-6.5 20q0 12 6.5 21.5t18.5 9.5h28v103q0 15 13 22t29 7t29 -7t13 -22v-103h271v103q0 15 13 22t29 7t29 -7t13 -22v-103h28q12 0 18.5 -9.5t6.5 -21.5q0 -11 -6.5 -20t-18.5 -9h-28v-509q0 -15 -13 -22.5t-29 -7.5
t-29 7.5t-13 22.5v314h-271v-314q0 -15 -13 -22.5t-29 -7.5zM156 414h271v125h-271v-125z" />
    <glyph glyph-name="hbar" unicode="&#x127;" horiz-adv-x="503" 
d="M101 0q-18 0 -29.5 9.5t-11.5 20.5v543h-29q-12 0 -20.5 8.5t-8.5 21.5t8.5 22t20.5 9h29v97q0 13 11.5 21t29.5 8q17 0 29.5 -8t12.5 -21v-97h100q12 0 21 -9t9 -22t-9 -21.5t-21 -8.5h-100v-169q16 29 48.5 52.5t81.5 23.5q48 0 88 -26.5t64 -69.5t24 -96v-258
q0 -15 -13 -22.5t-29 -7.5q-15 0 -28 7.5t-13 22.5v258q0 29 -16 56t-41.5 44t-56.5 17q-27 0 -52 -14.5t-41 -40t-16 -62.5v-258q0 -11 -12.5 -20.5t-29.5 -9.5z" />
    <glyph glyph-name="Itilde" unicode="&#x128;" horiz-adv-x="227" 
d="M113 0q-15 0 -28.5 7.5t-13.5 22.5v672q0 15 13.5 22t28.5 7q16 0 29 -7t13 -22v-672q0 -15 -13 -22.5t-29 -7.5zM188 854q-29 0 -49.5 8.5t-40.5 16.5t-46 8q-21 0 -35 -7t-23 -14.5t-18 -7.5q-8 0 -13 5t-7.5 12t-2.5 12q0 17 9.5 28.5t23.5 18.5t29 10.5t25 3.5
q28 0 48 -8t40.5 -16.5t46.5 -8.5q22 0 34.5 7t21 13.5t17.5 6.5t14 -5t7.5 -11.5t2.5 -11.5q0 -18 -9.5 -29.5t-23 -18.5t-27.5 -9.5t-24 -2.5z" />
    <glyph glyph-name="itilde" unicode="&#x129;" horiz-adv-x="200" 
d="M100 0q-18 0 -29.5 9.5t-11.5 20.5v415q0 13 11.5 21t29.5 8q17 0 29.5 -8t12.5 -21v-415q0 -11 -12.5 -20.5t-29.5 -9.5zM175 602q-29 0 -49.5 8.5t-40.5 16.5t-46 8q-21 0 -35 -7t-23 -14.5t-18 -7.5q-8 0 -13 5t-7.5 12t-2.5 12q0 17 9.5 28.5t23.5 18.5t29 10.5
t25 3.5q28 0 48 -8t40.5 -16.5t46.5 -8.5q22 0 34.5 7t21 13.5t17.5 6.5t14 -5t7.5 -11.5t2.5 -11.5q0 -18 -9.5 -29.5t-23 -18.5t-27.5 -9.5t-24 -2.5z" />
    <glyph glyph-name="Imacron" unicode="&#x12a;" horiz-adv-x="227" 
d="M113 0q-15 0 -28.5 7.5t-13.5 22.5v672q0 15 13.5 22t28.5 7q16 0 29 -7t13 -22v-672q0 -15 -13 -22.5t-29 -7.5zM6 879q-13 0 -21 8.5t-8 21.5t8 22t21 9h212q11 0 20.5 -9t9.5 -22t-9.5 -21.5t-20.5 -8.5h-212z" />
    <glyph glyph-name="imacron" unicode="&#x12b;" horiz-adv-x="200" 
d="M100 0q-18 0 -29.5 9.5t-11.5 20.5v415q0 13 11.5 21t29.5 8q17 0 29.5 -8t12.5 -21v-415q0 -11 -12.5 -20.5t-29.5 -9.5zM-6 628q-13 0 -21 8.5t-8 21.5t8 22t21 9h212q11 0 20.5 -9t9.5 -22t-9.5 -21.5t-20.5 -8.5h-212z" />
    <glyph glyph-name="Ibreve" unicode="&#x12c;" horiz-adv-x="227" 
d="M113 0q-15 0 -28.5 7.5t-13.5 22.5v672q0 15 13.5 22t28.5 7q16 0 29 -7t13 -22v-672q0 -15 -13 -22.5t-29 -7.5zM113 846q-41 0 -75.5 28.5t-43.5 69.5q-2 10 4 16.5t16 6.5h10q9 0 14 -5.5t8 -14.5q6 -25 25 -42t42 -17q24 0 43 17t24 42q3 9 8 14.5t14 5.5h9
q11 0 17 -6.5t4 -17.5q-9 -40 -43.5 -68.5t-75.5 -28.5z" />
    <glyph glyph-name="ibreve" unicode="&#x12d;" horiz-adv-x="200" 
d="M100 0q-18 0 -29.5 9.5t-11.5 20.5v415q0 13 11.5 21t29.5 8q17 0 29.5 -8t12.5 -21v-415q0 -11 -12.5 -20.5t-29.5 -9.5zM100 594q-41 0 -75.5 28.5t-43.5 69.5q-2 10 4 16.5t16 6.5h10q9 0 14 -5.5t8 -14.5q6 -25 25 -42t42 -17q24 0 43 17t24 42q3 9 8 14.5t14 5.5h9
q11 0 17 -6.5t4 -17.5q-9 -40 -43.5 -68.5t-75.5 -28.5z" />
    <glyph glyph-name="Iogonek" unicode="&#x12e;" horiz-adv-x="227" 
d="M113 0q-15 0 -28.5 7.5t-13.5 22.5v672q0 15 13.5 22t28.5 7q16 0 29 -7t13 -22v-672q0 -15 -13 -22.5t-29 -7.5zM121 -201q-28 0 -51 8.5t-37 26t-14 44.5q0 42 23 80t62 67l36 -17q-31 -25 -52.5 -56.5t-21.5 -66.5q0 -24 15.5 -34.5t45.5 -10.5q10 0 15 -6.5t5 -15.5
q0 -8 -5 -13.5t-21 -5.5z" />
    <glyph glyph-name="iogonek" unicode="&#x12f;" horiz-adv-x="200" 
d="M100 0q-18 0 -29.5 9.5t-11.5 20.5v415q0 13 11.5 21t29.5 8q17 0 29.5 -8t12.5 -21v-415q0 -11 -12.5 -20.5t-29.5 -9.5zM101 588q-18 0 -30.5 13t-12.5 31t12.5 30.5t30.5 12.5q17 0 29.5 -12.5t12.5 -30.5t-12.5 -31t-29.5 -13zM104 -200q-28 0 -51 8.5t-37 26
t-14 44.5q0 42 23 80t62 67l36 -17q-31 -25 -52.5 -56.5t-21.5 -66.5q0 -24 15.5 -34.5t45.5 -10.5q10 0 15 -6.5t5 -15.5q0 -8 -5 -13.5t-21 -5.5z" />
    <glyph glyph-name="Idotaccent" unicode="&#x130;" horiz-adv-x="227" 
d="M113 0q-15 0 -28.5 7.5t-13.5 22.5v672q0 15 13.5 22t28.5 7q16 0 29 -7t13 -22v-672q0 -15 -13 -22.5t-29 -7.5zM114 840q-18 0 -30.5 13t-12.5 31t12.5 30.5t30.5 12.5q17 0 29.5 -12.5t12.5 -30.5t-12.5 -31t-29.5 -13z" />
    <glyph glyph-name="dotlessi" unicode="&#x131;" horiz-adv-x="200" 
d="M100 0q-18 0 -29.5 9.5t-11.5 20.5v415q0 13 11.5 21t29.5 8q17 0 29.5 -8t12.5 -21v-415q0 -11 -12.5 -20.5t-29.5 -9.5z" />
    <glyph glyph-name="IJ" unicode="&#x132;" horiz-adv-x="744" 
d="M113 0q-15 0 -28.5 7.5t-13.5 22.5v672q0 15 13.5 22t28.5 7q16 0 29 -7t13 -22v-672q0 -15 -13 -22.5t-29 -7.5zM463 -6q-65 0 -114 23t-76.5 64.5t-27.5 95.5q0 24 11 32.5t31 8.5q16 0 28.5 -6.5t13.5 -22.5q1 -34 16 -61.5t44 -42.5t71 -15q63 0 97.5 34.5
t34.5 107.5v443h-130q-14 0 -21.5 12t-7.5 27q0 13 6.5 25t22.5 12h176q15 0 26.5 -7.5t11.5 -22.5v-489q0 -79 -28.5 -127t-77 -69.5t-107.5 -21.5z" />
    <glyph glyph-name="ij" unicode="&#x133;" horiz-adv-x="391" 
d="M100 604q-21 0 -36.5 14.5t-15.5 33.5t15.5 33t36.5 14q22 0 36.5 -14t14.5 -33t-14.5 -33.5t-36.5 -14.5zM100 0q-18 0 -29.5 9.5t-11.5 20.5v415q0 13 11.5 21t29.5 8q17 0 29.5 -8t12.5 -21v-415q0 -11 -12.5 -20.5t-29.5 -9.5zM195 -229q-24 0 -34 11.5t-10 24.5
q0 17 10.5 27t23.5 10q29 0 42.5 15t17 41.5t3.5 59.5v485q0 13 12 21t29 8q18 0 30 -8t12 -21v-485q0 -55 -14 -98t-44 -67t-78 -24zM289 604q-21 0 -36.5 14.5t-15.5 33.5t15.5 33t36.5 14q22 0 36.5 -14t14.5 -33t-14.5 -33.5t-36.5 -14.5z" />
    <glyph glyph-name="Jcircumflex" unicode="&#x134;" horiz-adv-x="517" 
d="M236 -6q-65 0 -114 23t-76.5 64.5t-27.5 95.5q0 24 11 32.5t31 8.5q16 0 28.5 -6.5t13.5 -22.5q1 -34 16 -61.5t44 -42.5t71 -15q63 0 97.5 34.5t34.5 107.5v443h-130q-14 0 -21.5 12t-7.5 27q0 13 6.5 25t22.5 12h176q15 0 26.5 -7.5t11.5 -22.5v-489q0 -79 -28.5 -127
t-77 -69.5t-107.5 -21.5zM145 839q-9 0 -16 9t-7 20q0 8 4 15t11 11l104 56q9 5 17 5q9 0 17 -5l104 -55q9 -4 12.5 -12t3.5 -16q0 -11 -6.5 -19.5t-16.5 -8.5q-2 0 -4.5 1t-5.5 2l-104 56l-104 -56q-2 -1 -4.5 -2t-4.5 -1z" />
    <glyph glyph-name="jcircumflex" unicode="&#x135;" horiz-adv-x="202" 
d="M6 -229q-24 0 -34 11.5t-10 24.5q0 17 10.5 27t23.5 10q29 0 42.5 15t17 41.5t3.5 59.5v485q0 13 12 21t29 8q18 0 30 -8t12 -21v-485q0 -55 -14 -98t-44 -67t-78 -24zM-16 588q-9 0 -16 9t-7 20q0 8 4 15t11 11l104 56q9 5 17 5q9 0 17 -5l104 -55q9 -4 12.5 -12
t3.5 -16q0 -11 -6.5 -19.5t-16.5 -8.5q-2 0 -4.5 1t-5.5 2l-104 56l-104 -56q-2 -1 -4.5 -2t-4.5 -1z" />
    <glyph glyph-name="uni0136" unicode="&#x136;" horiz-adv-x="531" 
d="M113 0q-15 0 -28.5 7.5t-13.5 22.5v672q0 15 13.5 22t28.5 7q16 0 29 -7t13 -22v-331l269 348q9 12 25 12q11 0 22 -6.5t18 -16t7 -20.5q0 -4 -1 -9t-5 -9l-204 -255l237 -360q5 -7 5 -15q0 -11 -7 -20.5t-18 -15.5t-24 -6q-8 0 -16 4t-14 13l-219 329l-75 -93v-221
q0 -15 -13 -22.5t-29 -7.5zM211 -168q-12 0 -21 11t-9 23q0 15 13 22l117 62q6 2 10 2q13 0 21 -11t8 -23q0 -17 -14 -24l-113 -59l-6 -2t-6 -1z" />
    <glyph glyph-name="uni0137" unicode="&#x137;" horiz-adv-x="466" 
d="M100 0q-17 0 -28.5 9.5t-11.5 20.5v701q0 13 11.5 21t28.5 8q18 0 30.5 -8t12.5 -21v-468l228 206q9 7 18 7q10 0 19.5 -5.5t16 -14.5t6.5 -19q0 -5 -2 -10.5t-7 -9.5l-139 -123l166 -241q5 -7 5 -15q0 -10 -7 -20t-17.5 -16t-21.5 -6q-14 0 -23 13l-159 233l-83 -74
v-138q0 -11 -12.5 -20.5t-30.5 -9.5zM178 -168q-12 0 -21 11t-9 23q0 15 13 22l117 62q6 2 10 2q13 0 21 -11t8 -23q0 -17 -14 -24l-113 -59l-6 -2t-6 -1z" />
    <glyph glyph-name="kgreenlandic" unicode="&#x138;" horiz-adv-x="465" 
d="M99 0q-17 0 -28.5 9.5t-11.5 20.5v415q0 13 11.5 21t28.5 8q18 0 30.5 -8t12.5 -21v-182l228 206q9 7 18 7q10 0 19.5 -5.5t16 -14.5t6.5 -19q0 -5 -2 -10.5t-7 -9.5l-139 -123l166 -241q5 -7 5 -15q0 -10 -7 -20t-17.5 -16t-21.5 -6q-14 0 -23 13l-159 233l-83 -74v-138
q0 -11 -12.5 -20.5t-30.5 -9.5z" />
    <glyph glyph-name="Lacute" unicode="&#x139;" horiz-adv-x="468" 
d="M109 0q-14 0 -26 7.5t-12 22.5v672q0 15 13.5 22t28.5 7q16 0 29 -7t13 -22v-626h274q14 0 20.5 -11.5t6.5 -26.5q0 -14 -6.5 -26t-20.5 -12h-320zM205 835q-12 0 -21 11t-9 23q0 16 13 22l117 62q6 2 10 2q13 0 20.5 -10.5t7.5 -23.5q0 -16 -14 -24l-113 -58
q-3 -1 -5.5 -2.5t-5.5 -1.5z" />
    <glyph glyph-name="lacute" unicode="&#x13a;" horiz-adv-x="219" 
d="M109 0q-18 0 -29.5 9.5t-11.5 20.5v701q0 13 11.5 21t29.5 8q17 0 29.5 -8t12.5 -21v-701q0 -11 -12.5 -20.5t-29.5 -9.5zM67 801q-12 0 -21 11t-9 23q0 16 13 22l117 62q6 2 10 2q13 0 20.5 -10.5t7.5 -23.5q0 -16 -14 -24l-113 -58q-3 -1 -5.5 -2.5t-5.5 -1.5z" />
    <glyph glyph-name="uni013B" unicode="&#x13b;" horiz-adv-x="468" 
d="M109 0q-14 0 -26 7.5t-12 22.5v672q0 15 13.5 22t28.5 7q16 0 29 -7t13 -22v-626h274q14 0 20.5 -11.5t6.5 -26.5q0 -14 -6.5 -26t-20.5 -12h-320zM195 -168q-12 0 -21 11t-9 23q0 15 13 22l117 62q6 2 10 2q13 0 21 -11t8 -23q0 -17 -14 -24l-113 -59l-6 -2t-6 -1z" />
    <glyph glyph-name="uni013C" unicode="&#x13c;" horiz-adv-x="219" 
d="M109 0q-18 0 -29.5 9.5t-11.5 20.5v701q0 13 11.5 21t29.5 8q17 0 29.5 -8t12.5 -21v-701q0 -11 -12.5 -20.5t-29.5 -9.5zM55 -168q-12 0 -21 11t-9 23q0 15 13 22l117 62q6 2 10 2q13 0 21 -11t8 -23q0 -17 -14 -24l-113 -59l-6 -2t-6 -1z" />
    <glyph glyph-name="Lcaron" unicode="&#x13d;" horiz-adv-x="469" 
d="M109 0q-14 0 -26 7.5t-12 22.5v672q0 15 13.5 22t28.5 7q16 0 29 -7t13 -22v-626h274q14 0 20.5 -11.5t6.5 -26.5q0 -14 -6.5 -26t-20.5 -12h-320zM337 554q-10 0 -20 6t-10 18q0 6 2 10l21 52q-14 7 -23 20t-9 29q0 21 15 36.5t37 15.5q21 0 36.5 -15.5t15.5 -36.5
q0 -5 -2.5 -15t-7.5 -24t-13.5 -35t-21.5 -48q-3 -7 -9 -10t-11 -3z" />
    <glyph glyph-name="lcaron" unicode="&#x13e;" horiz-adv-x="219" 
d="M109 0q-18 0 -29.5 9.5t-11.5 20.5v701q0 13 11.5 21t29.5 8q17 0 29.5 -8t12.5 -21v-701q0 -11 -12.5 -20.5t-29.5 -9.5zM251 554q-10 0 -20 6t-10 18q0 6 2 10l21 52q-14 7 -23 20t-9 29q0 21 15 36.5t37 15.5q21 0 36.5 -15.5t15.5 -36.5q0 -5 -2.5 -15t-7.5 -24
t-13.5 -35t-21.5 -48q-3 -7 -9 -10t-11 -3z" />
    <glyph glyph-name="Ldot" unicode="&#x13f;" horiz-adv-x="469" 
d="M109 0q-14 0 -26 7.5t-12 22.5v672q0 15 13.5 22t28.5 7q16 0 29 -7t13 -22v-626h274q14 0 20.5 -11.5t6.5 -26.5q0 -14 -6.5 -26t-20.5 -12h-320zM346 371q-23 0 -38.5 15t-15.5 35q0 21 15.5 35.5t38.5 14.5q22 0 37.5 -14.5t15.5 -35.5q0 -20 -15.5 -35t-37.5 -15z
" />
    <glyph glyph-name="ldot" unicode="&#x140;" horiz-adv-x="328" 
d="M109 0q-18 0 -29.5 9.5t-11.5 20.5v701q0 13 11.5 21t29.5 8q17 0 29.5 -8t12.5 -21v-701q0 -11 -12.5 -20.5t-29.5 -9.5zM270 250q-24 0 -39.5 15t-15.5 35q0 21 15.5 35.5t39.5 14.5q22 0 37.5 -14.5t15.5 -35.5q0 -20 -15.5 -35t-37.5 -15z" />
    <glyph glyph-name="Lslash" unicode="&#x141;" horiz-adv-x="474" 
d="M115 0q-14 0 -26 7.5t-12 22.5v253l-36 -21q-5 -3 -10 -3q-12 0 -21.5 13t-9.5 26q0 7 3 13.5t9 8.5l65 36v346q0 15 13.5 22t28.5 7q16 0 29 -7t13 -22v-305l87 49q5 2 11 2q9 0 15.5 -5.5t11 -14t4.5 -17.5q0 -17 -13 -23l-116 -63v-249h274q14 0 20.5 -11.5t6.5 -26.5
q0 -14 -6.5 -26t-20.5 -12h-320z" />
    <glyph glyph-name="lslash" unicode="&#x142;" horiz-adv-x="313" 
d="M152 0q-18 0 -29.5 9.5t-11.5 20.5v261l-52 -29q-5 -3 -11 -3q-12 0 -21.5 13t-9.5 26q0 7 3 13.5t10 8.5l81 44v367q0 13 11.5 21t29.5 8t30 -8t12 -21v-326l62 36q4 2 10 2q9 0 16 -5.5t11.5 -14t4.5 -17.5q0 -17 -13 -23l-91 -50v-303q0 -11 -12 -20.5t-30 -9.5z" />
    <glyph glyph-name="Nacute" unicode="&#x143;" horiz-adv-x="582" 
d="M113 0q-15 0 -28.5 7.5t-13.5 22.5v672q0 16 13.5 22.5t28.5 6.5q16 0 27 -6t20 -17.5t18 -29.5l248 -487v511q0 15 13.5 22t28.5 7q16 0 29 -7t13 -22v-672q0 -15 -13 -22.5t-29 -7.5t-29.5 11t-22.5 27l-261 503v-511q0 -15 -13 -22.5t-29 -7.5zM251 835q-12 0 -21 11
t-9 23q0 16 13 22l117 62q6 2 10 2q13 0 20.5 -10.5t7.5 -23.5q0 -16 -14 -24l-113 -58q-3 -1 -5.5 -2.5t-5.5 -1.5z" />
    <glyph glyph-name="nacute" unicode="&#x144;" horiz-adv-x="502" 
d="M100 0q-18 0 -29.5 9.5t-11.5 20.5v415q0 13 11.5 21t29.5 8q16 0 27 -8t11 -21v-41q16 29 50 52.5t84 23.5q48 0 88 -26.5t64 -69.5t24 -96v-258q0 -15 -13 -22.5t-29 -7.5q-15 0 -28 7.5t-13 22.5v258q0 29 -15.5 56t-41.5 44t-57 17q-27 0 -52 -14.5t-41 -40
t-16 -62.5v-258q0 -11 -12.5 -20.5t-29.5 -9.5zM211 578q-12 0 -21 11t-9 23q0 16 13 22l117 62q6 2 10 2q13 0 20.5 -10.5t7.5 -23.5q0 -16 -14 -24l-113 -58q-3 -1 -5.5 -2.5t-5.5 -1.5z" />
    <glyph glyph-name="uni0145" unicode="&#x145;" horiz-adv-x="582" 
d="M113 0q-15 0 -28.5 7.5t-13.5 22.5v672q0 16 13.5 22.5t28.5 6.5q16 0 27 -6t20 -17.5t18 -29.5l248 -487v511q0 15 13.5 22t28.5 7q16 0 29 -7t13 -22v-672q0 -15 -13 -22.5t-29 -7.5t-29.5 11t-22.5 27l-261 503v-511q0 -15 -13 -22.5t-29 -7.5zM236 -168q-12 0 -21 11
t-9 23q0 15 13 22l117 62q6 2 10 2q13 0 21 -11t8 -23q0 -17 -14 -24l-113 -59l-6 -2t-6 -1z" />
    <glyph glyph-name="uni0146" unicode="&#x146;" horiz-adv-x="502" 
d="M100 0q-18 0 -29.5 9.5t-11.5 20.5v415q0 13 11.5 21t29.5 8q16 0 27 -8t11 -21v-41q16 29 50 52.5t84 23.5q48 0 88 -26.5t64 -69.5t24 -96v-258q0 -15 -13 -22.5t-29 -7.5q-15 0 -28 7.5t-13 22.5v258q0 29 -15.5 56t-41.5 44t-57 17q-27 0 -52 -14.5t-41 -40
t-16 -62.5v-258q0 -11 -12.5 -20.5t-29.5 -9.5zM196 -168q-12 0 -21 11t-9 23q0 15 13 22l117 62q6 2 10 2q13 0 21 -11t8 -23q0 -17 -14 -24l-113 -59l-6 -2t-6 -1z" />
    <glyph glyph-name="Ncaron" unicode="&#x147;" horiz-adv-x="582" 
d="M113 0q-15 0 -28.5 7.5t-13.5 22.5v672q0 16 13.5 22.5t28.5 6.5q16 0 27 -6t20 -17.5t18 -29.5l248 -487v511q0 15 13.5 22t28.5 7q16 0 29 -7t13 -22v-672q0 -15 -13 -22.5t-29 -7.5t-29.5 11t-22.5 27l-261 503v-511q0 -15 -13 -22.5t-29 -7.5zM291 836q-10 0 -19 9
l-102 83q-7 6 -10.5 12.5t-3.5 14.5q0 10 6 18.5t15 8.5q7 0 14 -6l100 -84l101 84q6 6 14 6q10 0 15.5 -8.5t5.5 -18.5q0 -8 -3.5 -14.5t-11.5 -12.5l-101 -83q-11 -9 -20 -9z" />
    <glyph glyph-name="ncaron" unicode="&#x148;" horiz-adv-x="502" 
d="M100 0q-18 0 -29.5 9.5t-11.5 20.5v415q0 13 11.5 21t29.5 8q16 0 27 -8t11 -21v-41q16 29 50 52.5t84 23.5q48 0 88 -26.5t64 -69.5t24 -96v-258q0 -15 -13 -22.5t-29 -7.5q-15 0 -28 7.5t-13 22.5v258q0 29 -15.5 56t-41.5 44t-57 17q-27 0 -52 -14.5t-41 -40
t-16 -62.5v-258q0 -11 -12.5 -20.5t-29.5 -9.5zM251 578q-10 0 -19 9l-102 83q-7 6 -10.5 12.5t-3.5 14.5q0 10 6 18.5t15 8.5q7 0 14 -6l100 -84l101 84q6 6 14 6q10 0 15.5 -8.5t5.5 -18.5q0 -8 -3.5 -14.5t-11.5 -12.5l-101 -83q-11 -9 -20 -9z" />
    <glyph glyph-name="Eng" unicode="&#x14a;" horiz-adv-x="582" 
d="M374 -229q-24 0 -34 11.5t-10 24.5q0 17 10.5 27t23.5 10q28 0 41.5 15t17.5 41.5t4 59.5v43q0 8 -2.5 16t-8.5 19l-261 503v-511q0 -15 -13 -22.5t-29 -7.5q-15 0 -28.5 7.5t-13.5 22.5v672q0 16 13.5 22.5t28.5 6.5q16 0 27 -6t20 -17.5t18 -29.5l248 -487v511
q0 15 13.5 22t28.5 7q16 0 29 -7t13 -22v-742q0 -55 -14 -98t-44 -67t-78 -24z" />
    <glyph glyph-name="eng" unicode="&#x14b;" horiz-adv-x="503" 
d="M311 -229q-24 0 -33.5 11.5t-9.5 24.5q0 17 10 27t24 10q28 0 41.5 15t17.5 41.5t4 59.5v328q0 29 -15.5 56t-41.5 44t-57 17q-27 0 -52 -14.5t-41 -40t-16 -62.5v-258q0 -11 -12.5 -20.5t-29.5 -9.5q-18 0 -29.5 9.5t-11.5 20.5v415q0 13 11.5 21t29.5 8q16 0 27 -8
t11 -21v-41q16 29 50 52.5t84 23.5q48 0 88 -26.5t64 -69.5t24 -96v-328q0 -55 -14.5 -98t-44.5 -67t-78 -24z" />
    <glyph glyph-name="Omacron" unicode="&#x14c;" horiz-adv-x="559" 
d="M279 -6q-61 0 -109.5 21.5t-77 69t-28.5 127.5v301q0 80 28.5 127.5t77 69t109.5 21.5t110 -21.5t77.5 -69t28.5 -127.5v-301q0 -80 -28.5 -127.5t-77.5 -69t-110 -21.5zM279 70q62 0 97 34.5t35 107.5v301q0 73 -35 107.5t-97 34.5t-96.5 -34.5t-34.5 -107.5v-301
q0 -73 34.5 -107.5t96.5 -34.5zM173 879q-13 0 -21 8.5t-8 21.5t8 22t21 9h212q11 0 20.5 -9t9.5 -22t-9.5 -21.5t-20.5 -8.5h-212z" />
    <glyph glyph-name="omacron" unicode="&#x14d;" horiz-adv-x="477" 
d="M238 -8q-53 0 -98 27.5t-72 71.5t-27 95v102q0 51 26.5 94.5t71.5 70.5t99 27q53 0 98 -26.5t72.5 -69.5t27.5 -96v-102q0 -50 -27.5 -94.5t-72.5 -72t-98 -27.5zM238 67q32 0 57.5 17t41.5 44.5t16 57.5v102q0 29 -15.5 56t-41.5 44t-58 17t-58 -17t-41 -44t-15 -56
v-102q0 -30 15 -57.5t41 -44.5t58 -17zM131 627q-13 0 -21 8.5t-8 21.5t8 22t21 9h212q11 0 20.5 -9t9.5 -22t-9.5 -21.5t-20.5 -8.5h-212z" />
    <glyph glyph-name="Obreve" unicode="&#x14e;" horiz-adv-x="559" 
d="M279 -6q-61 0 -109.5 21.5t-77 69t-28.5 127.5v301q0 80 28.5 127.5t77 69t109.5 21.5t110 -21.5t77.5 -69t28.5 -127.5v-301q0 -80 -28.5 -127.5t-77.5 -69t-110 -21.5zM279 70q62 0 97 34.5t35 107.5v301q0 73 -35 107.5t-97 34.5t-96.5 -34.5t-34.5 -107.5v-301
q0 -73 34.5 -107.5t96.5 -34.5zM280 846q-41 0 -75.5 28.5t-43.5 69.5q-2 10 4 16.5t16 6.5h10q9 0 14 -5.5t8 -14.5q6 -25 25 -42t42 -17q24 0 43 17t24 42q3 9 8 14.5t14 5.5h9q11 0 17 -6.5t4 -17.5q-9 -40 -43.5 -68.5t-75.5 -28.5z" />
    <glyph glyph-name="obreve" unicode="&#x14f;" horiz-adv-x="477" 
d="M238 -8q-53 0 -98 27.5t-72 71.5t-27 95v102q0 51 26.5 94.5t71.5 70.5t99 27q53 0 98 -26.5t72.5 -69.5t27.5 -96v-102q0 -50 -27.5 -94.5t-72.5 -72t-98 -27.5zM238 67q32 0 57.5 17t41.5 44.5t16 57.5v102q0 29 -15.5 56t-41.5 44t-58 17t-58 -17t-41 -44t-15 -56
v-102q0 -30 15 -57.5t41 -44.5t58 -17zM238 594q-41 0 -75.5 28.5t-43.5 69.5q-2 10 4 16.5t16 6.5h10q9 0 14 -5.5t8 -14.5q6 -25 25 -42t42 -17q24 0 43 17t24 42q3 9 8 14.5t14 5.5h9q11 0 17 -6.5t4 -17.5q-9 -40 -43.5 -68.5t-75.5 -28.5z" />
    <glyph glyph-name="Ohungarumlaut" unicode="&#x150;" horiz-adv-x="559" 
d="M279 -6q-61 0 -109.5 21.5t-77 69t-28.5 127.5v301q0 80 28.5 127.5t77 69t109.5 21.5t110 -21.5t77.5 -69t28.5 -127.5v-301q0 -80 -28.5 -127.5t-77.5 -69t-110 -21.5zM279 70q62 0 97 34.5t35 107.5v301q0 73 -35 107.5t-97 34.5t-96.5 -34.5t-34.5 -107.5v-301
q0 -73 34.5 -107.5t96.5 -34.5zM326 842q-11 0 -20.5 9t-9.5 19q0 9 8 15l93 74q3 3 6.5 4t6.5 1q11 0 19 -9t8 -19q0 -11 -9 -17l-88 -71q-6 -6 -14 -6zM174 842q-11 0 -20.5 9t-9.5 19q0 9 8 15l92 74q4 3 7 4t6 1q12 0 20 -9t8 -19q0 -11 -9 -17l-88 -71q-6 -6 -14 -6z
" />
    <glyph glyph-name="ohungarumlaut" unicode="&#x151;" horiz-adv-x="477" 
d="M238 -8q-53 0 -98 27.5t-72 71.5t-27 95v102q0 51 26.5 94.5t71.5 70.5t99 27q53 0 98 -26.5t72.5 -69.5t27.5 -96v-102q0 -50 -27.5 -94.5t-72.5 -72t-98 -27.5zM238 67q32 0 57.5 17t41.5 44.5t16 57.5v102q0 29 -15.5 56t-41.5 44t-58 17t-58 -17t-41 -44t-15 -56
v-102q0 -30 15 -57.5t41 -44.5t58 -17zM284 590q-11 0 -20.5 9t-9.5 19q0 9 8 15l93 74q3 3 6.5 4t6.5 1q11 0 19 -9t8 -19q0 -11 -9 -17l-88 -71q-6 -6 -14 -6zM132 590q-11 0 -20.5 9t-9.5 19q0 9 8 15l92 74q4 3 7 4t6 1q12 0 20 -9t8 -19q0 -11 -9 -17l-88 -71
q-6 -6 -14 -6z" />
    <glyph glyph-name="OE" unicode="&#x152;" horiz-adv-x="837" 
d="M267 -6q-58 0 -103.5 21.5t-72.5 69.5t-27 127v301q0 79 27 127t72.5 69.5t103.5 21.5q46 0 88 -17.5t65 -55.5v43q0 15 12 22.5t26 7.5h330q16 0 22.5 -12t6.5 -25q0 -15 -7.5 -27t-21.5 -12h-293v-254h139q14 0 21.5 -11t7.5 -25q0 -12 -6.5 -23t-22.5 -11h-139v-255
h293q14 0 21.5 -11.5t7.5 -27.5q0 -13 -6.5 -25t-22.5 -12h-330q-14 0 -26 7.5t-12 22.5v37q-23 -38 -65 -55.5t-88 -17.5zM279 70q62 0 97 34.5t35 107.5v301q0 73 -35 107.5t-97 34.5q-61 0 -96 -34.5t-35 -107.5v-301q0 -73 35 -107.5t96 -34.5z" />
    <glyph glyph-name="oe" unicode="&#x153;" horiz-adv-x="777" 
d="M238 -8q-53 0 -98 27.5t-72 71.5t-27 95v102q0 51 26.5 94.5t71.5 70.5t99 27q49 0 91.5 -25t67.5 -66q24 40 65 65.5t90 25.5q51 0 94.5 -24t70.5 -65t27 -94q0 -40 -13 -58t-33 -22t-43 -4h-219v-30q0 -56 40 -88.5t104 -32.5q37 0 58 10t34.5 19.5t25.5 9.5
q10 0 17.5 -6t12 -15t4.5 -18q0 -13 -20 -29.5t-55 -28.5t-82 -12q-59 0 -105.5 24.5t-73.5 67.5q-25 -41 -67 -66.5t-91 -25.5zM238 67q32 0 57.5 17t41.5 44.5t16 57.5v102q0 29 -15.5 56t-41.5 44t-58 17t-58 -17t-41 -44t-15 -56v-102q0 -30 15 -57.5t41 -44.5t58 -17z
M436 269h184q27 0 36 6.5t9 25.5q0 30 -15 55.5t-40.5 41.5t-59.5 16q-31 0 -57 -14.5t-41.5 -38.5t-15.5 -54v-38z" />
    <glyph glyph-name="Racute" unicode="&#x154;" horiz-adv-x="539" 
d="M459 -2q-12 0 -21.5 10t-16.5 23l-150 293h-116v-294q0 -15 -13 -22.5t-29 -7.5q-15 0 -28.5 7.5t-13.5 22.5v672q0 12 8.5 20t21.5 9h183q61 0 111.5 -18.5t80.5 -62t30 -119.5q0 -61 -19.5 -101t-53.5 -62.5t-76 -31.5l148 -281q2 -4 3 -7.5t1 -6.5q0 -11 -7.5 -21
t-19 -16t-23.5 -6zM155 394h129q62 0 100 30t38 101t-38 100.5t-100 29.5h-129v-261zM241 835q-12 0 -21 11t-9 23q0 16 13 22l117 62q6 2 10 2q13 0 20.5 -10.5t7.5 -23.5q0 -16 -14 -24l-113 -58q-3 -1 -5.5 -2.5t-5.5 -1.5z" />
    <glyph glyph-name="racute" unicode="&#x155;" horiz-adv-x="342" 
d="M99 0q-17 0 -28.5 9.5t-11.5 20.5v415q0 13 11.5 21t28.5 8t28 -8t11 -21v-47q11 21 30 39.5t44.5 30.5t56.5 12h34q13 0 22.5 -11t9.5 -27q0 -15 -9.5 -26t-22.5 -11h-34q-32 0 -61 -18t-47.5 -50.5t-18.5 -78.5v-228q0 -11 -12.5 -20.5t-30.5 -9.5zM129 584
q-12 0 -21 11t-9 23q0 16 13 22l117 62q6 2 10 2q13 0 20.5 -10.5t7.5 -23.5q0 -16 -14 -24l-113 -58q-3 -1 -5.5 -2.5t-5.5 -1.5z" />
    <glyph glyph-name="uni0156" unicode="&#x156;" horiz-adv-x="539" 
d="M459 -2q-12 0 -21.5 10t-16.5 23l-150 293h-116v-294q0 -15 -13 -22.5t-29 -7.5q-15 0 -28.5 7.5t-13.5 22.5v672q0 12 8.5 20t21.5 9h183q61 0 111.5 -18.5t80.5 -62t30 -119.5q0 -61 -19.5 -101t-53.5 -62.5t-76 -31.5l148 -281q2 -4 3 -7.5t1 -6.5q0 -11 -7.5 -21
t-19 -16t-23.5 -6zM155 394h129q62 0 100 30t38 101t-38 100.5t-100 29.5h-129v-261zM207 -168q-12 0 -21 11t-9 23q0 15 13 22l117 62q6 2 10 2q13 0 21 -11t8 -23q0 -17 -14 -24l-113 -59l-6 -2t-6 -1z" />
    <glyph glyph-name="uni0157" unicode="&#x157;" horiz-adv-x="342" 
d="M99 0q-17 0 -28.5 9.5t-11.5 20.5v415q0 13 11.5 21t28.5 8t28 -8t11 -21v-47q11 21 30 39.5t44.5 30.5t56.5 12h34q13 0 22.5 -11t9.5 -27q0 -15 -9.5 -26t-22.5 -11h-34q-32 0 -61 -18t-47.5 -50.5t-18.5 -78.5v-228q0 -11 -12.5 -20.5t-30.5 -9.5zM30 -169
q-12 0 -21 11t-9 23q0 15 13 22l117 62q6 2 10 2q13 0 21 -11t8 -23q0 -17 -14 -24l-113 -59l-6 -2t-6 -1z" />
    <glyph glyph-name="Rcaron" unicode="&#x158;" horiz-adv-x="539" 
d="M459 -2q-12 0 -21.5 10t-16.5 23l-150 293h-116v-294q0 -15 -13 -22.5t-29 -7.5q-15 0 -28.5 7.5t-13.5 22.5v672q0 12 8.5 20t21.5 9h183q61 0 111.5 -18.5t80.5 -62t30 -119.5q0 -61 -19.5 -101t-53.5 -62.5t-76 -31.5l148 -281q2 -4 3 -7.5t1 -6.5q0 -11 -7.5 -21
t-19 -16t-23.5 -6zM155 394h129q62 0 100 30t38 101t-38 100.5t-100 29.5h-129v-261zM281 836q-10 0 -19 9l-102 83q-7 6 -10.5 12.5t-3.5 14.5q0 10 6 18.5t15 8.5q7 0 14 -6l100 -84l101 84q6 6 14 6q10 0 15.5 -8.5t5.5 -18.5q0 -8 -3.5 -14.5t-11.5 -12.5l-101 -83
q-11 -9 -20 -9z" />
    <glyph glyph-name="rcaron" unicode="&#x159;" horiz-adv-x="342" 
d="M99 0q-17 0 -28.5 9.5t-11.5 20.5v415q0 13 11.5 21t28.5 8t28 -8t11 -21v-47q11 21 30 39.5t44.5 30.5t56.5 12h34q13 0 22.5 -11t9.5 -27q0 -15 -9.5 -26t-22.5 -11h-34q-32 0 -61 -18t-47.5 -50.5t-18.5 -78.5v-228q0 -11 -12.5 -20.5t-30.5 -9.5zM183 585
q-10 0 -19 9l-102 83q-7 6 -10.5 12.5t-3.5 14.5q0 10 6 18.5t15 8.5q7 0 14 -6l100 -84l101 84q6 6 14 6q10 0 15.5 -8.5t5.5 -18.5q0 -8 -3.5 -14.5t-11.5 -12.5l-101 -83q-11 -9 -20 -9z" />
    <glyph glyph-name="Sacute" unicode="&#x15a;" horiz-adv-x="502" 
d="M245 -8q-64 0 -112 19.5t-74 46t-26 47.5q0 10 5.5 20.5t14 18t17.5 7.5q12 0 23.5 -12t29 -28.5t45.5 -28.5t73 -12q42 0 73 13.5t48.5 41t17.5 69.5q0 43 -18 70t-47.5 45t-64 32t-70 28.5t-64.5 36t-47 55.5t-18 86q0 55 20 91t53 57t71.5 29.5t75.5 8.5q27 0 57 -4
t57 -12t44 -20.5t17 -29.5q0 -8 -4 -18.5t-12 -19t-20 -8.5q-11 0 -27 9.5t-42.5 19t-69.5 9.5q-36 0 -67.5 -10t-50 -33t-18.5 -61q0 -36 18 -59t47 -38t64 -27.5t70 -29t64.5 -40.5t47.5 -62.5t18 -96.5q0 -72 -28.5 -118.5t-77.5 -69t-113 -22.5zM211 835q-12 0 -21 11
t-9 23q0 16 13 22l117 62q6 2 10 2q13 0 20.5 -10.5t7.5 -23.5q0 -16 -14 -24l-113 -58q-3 -1 -5.5 -2.5t-5.5 -1.5z" />
    <glyph glyph-name="sacute" unicode="&#x15b;" horiz-adv-x="395" 
d="M195 -8q-48 0 -85 12.5t-58 29.5t-21 34q0 8 4 16.5t10.5 15t14.5 6.5q12 0 26 -11.5t38 -23.5t69 -12q53 0 74 19.5t21 43.5q0 31 -18 47.5t-46 26t-59 18.5t-59 22.5t-45.5 38t-17.5 65.5q0 33 16 65t52 53.5t96 21.5q35 0 67.5 -7.5t53 -20t20.5 -26.5q0 -6 -4 -16
t-11 -18t-18 -8q-8 0 -22.5 7.5t-35 14.5t-49.5 7q-33 0 -53 -11.5t-29 -27t-9 -31.5q0 -25 17.5 -39t46 -22.5t59.5 -17t59 -24t46 -42.5t18 -72q0 -61 -44 -97.5t-124 -36.5zM158 578q-12 0 -21 11t-9 23q0 16 13 22l117 62q6 2 10 2q13 0 20.5 -10.5t7.5 -23.5
q0 -16 -14 -24l-113 -58q-3 -1 -5.5 -2.5t-5.5 -1.5z" />
    <glyph glyph-name="Scircumflex" unicode="&#x15c;" horiz-adv-x="502" 
d="M245 -8q-64 0 -112 19.5t-74 46t-26 47.5q0 10 5.5 20.5t14 18t17.5 7.5q12 0 23.5 -12t29 -28.5t45.5 -28.5t73 -12q42 0 73 13.5t48.5 41t17.5 69.5q0 43 -18 70t-47.5 45t-64 32t-70 28.5t-64.5 36t-47 55.5t-18 86q0 55 20 91t53 57t71.5 29.5t75.5 8.5q27 0 57 -4
t57 -12t44 -20.5t17 -29.5q0 -8 -4 -18.5t-12 -19t-20 -8.5q-11 0 -27 9.5t-42.5 19t-69.5 9.5q-36 0 -67.5 -10t-50 -33t-18.5 -61q0 -36 18 -59t47 -38t64 -27.5t70 -29t64.5 -40.5t47.5 -62.5t18 -96.5q0 -72 -28.5 -118.5t-77.5 -69t-113 -22.5zM138 839q-9 0 -16 9
t-7 20q0 8 4 15t11 11l104 56q9 5 17 5q9 0 17 -5l104 -55q9 -4 12.5 -12t3.5 -16q0 -11 -6.5 -19.5t-16.5 -8.5q-2 0 -4.5 1t-5.5 2l-104 56l-104 -56q-2 -1 -4.5 -2t-4.5 -1z" />
    <glyph glyph-name="scircumflex" unicode="&#x15d;" horiz-adv-x="395" 
d="M195 -8q-48 0 -85 12.5t-58 29.5t-21 34q0 8 4 16.5t10.5 15t14.5 6.5q12 0 26 -11.5t38 -23.5t69 -12q53 0 74 19.5t21 43.5q0 31 -18 47.5t-46 26t-59 18.5t-59 22.5t-45.5 38t-17.5 65.5q0 33 16 65t52 53.5t96 21.5q35 0 67.5 -7.5t53 -20t20.5 -26.5q0 -6 -4 -16
t-11 -18t-18 -8q-8 0 -22.5 7.5t-35 14.5t-49.5 7q-33 0 -53 -11.5t-29 -27t-9 -31.5q0 -25 17.5 -39t46 -22.5t59.5 -17t59 -24t46 -42.5t18 -72q0 -61 -44 -97.5t-124 -36.5zM85 581q-9 0 -16 9t-7 20q0 8 4 15t11 11l104 56q9 5 17 5q9 0 17 -5l104 -55q9 -4 12.5 -12
t3.5 -16q0 -11 -6.5 -19.5t-16.5 -8.5q-2 0 -4.5 1t-5.5 2l-104 56l-104 -56q-2 -1 -4.5 -2t-4.5 -1z" />
    <glyph glyph-name="Scedilla" unicode="&#x15e;" horiz-adv-x="502" 
d="M245 -8q-64 0 -112 19.5t-74 46t-26 47.5q0 10 5.5 20.5t14 18t17.5 7.5q12 0 23.5 -12t29 -28.5t45.5 -28.5t73 -12q42 0 73 13.5t48.5 41t17.5 69.5q0 43 -18 70t-47.5 45t-64 32t-70 28.5t-64.5 36t-47 55.5t-18 86q0 55 20 91t53 57t71.5 29.5t75.5 8.5q27 0 57 -4
t57 -12t44 -20.5t17 -29.5q0 -8 -4 -18.5t-12 -19t-20 -8.5q-11 0 -27 9.5t-42.5 19t-69.5 9.5q-36 0 -67.5 -10t-50 -33t-18.5 -61q0 -36 18 -59t47 -38t64 -27.5t70 -29t64.5 -40.5t47.5 -62.5t18 -96.5q0 -72 -28.5 -118.5t-77.5 -69t-113 -22.5zM278 -212q-15 0 -33.5 3
t-32.5 9t-14 15q0 3 2 10t6 12.5t10 5.5t19 -7t37 -7q28 0 40 10.5t12 26.5q0 19 -15.5 29t-43.5 12l-43 3l26 99h45l-18 -67q51 -1 73.5 -23t22.5 -50q0 -18 -9.5 -36.5t-30 -31.5t-53.5 -13z" />
    <glyph glyph-name="scedilla" unicode="&#x15f;" horiz-adv-x="395" 
d="M195 -8q-48 0 -85 12.5t-58 29.5t-21 34q0 8 4 16.5t10.5 15t14.5 6.5q12 0 26 -11.5t38 -23.5t69 -12q53 0 74 19.5t21 43.5q0 31 -18 47.5t-46 26t-59 18.5t-59 22.5t-45.5 38t-17.5 65.5q0 33 16 65t52 53.5t96 21.5q35 0 67.5 -7.5t53 -20t20.5 -26.5q0 -6 -4 -16
t-11 -18t-18 -8q-8 0 -22.5 7.5t-35 14.5t-49.5 7q-33 0 -53 -11.5t-29 -27t-9 -31.5q0 -25 17.5 -39t46 -22.5t59.5 -17t59 -24t46 -42.5t18 -72q0 -61 -44 -97.5t-124 -36.5zM212 -212q-15 0 -33.5 3t-32.5 9t-14 15q0 3 2 10t6 12.5t10 5.5t19 -7t37 -7q28 0 40 10.5
t12 26.5q0 19 -15.5 29t-43.5 12l-43 3l26 99h45l-18 -67q51 -1 73.5 -23t22.5 -50q0 -18 -9.5 -36.5t-30 -31.5t-53.5 -13z" />
    <glyph glyph-name="Scaron" unicode="&#x160;" horiz-adv-x="502" 
d="M245 -8q-64 0 -112 19.5t-74 46t-26 47.5q0 10 5.5 20.5t14 18t17.5 7.5q12 0 23.5 -12t29 -28.5t45.5 -28.5t73 -12q42 0 73 13.5t48.5 41t17.5 69.5q0 43 -18 70t-47.5 45t-64 32t-70 28.5t-64.5 36t-47 55.5t-18 86q0 55 20 91t53 57t71.5 29.5t75.5 8.5q27 0 57 -4
t57 -12t44 -20.5t17 -29.5q0 -8 -4 -18.5t-12 -19t-20 -8.5q-11 0 -27 9.5t-42.5 19t-69.5 9.5q-36 0 -67.5 -10t-50 -33t-18.5 -61q0 -36 18 -59t47 -38t64 -27.5t70 -29t64.5 -40.5t47.5 -62.5t18 -96.5q0 -72 -28.5 -118.5t-77.5 -69t-113 -22.5zM251 836q-10 0 -19 9
l-102 83q-7 6 -10.5 12.5t-3.5 14.5q0 10 6 18.5t15 8.5q7 0 14 -6l100 -84l101 84q6 6 14 6q10 0 15.5 -8.5t5.5 -18.5q0 -8 -3.5 -14.5t-11.5 -12.5l-101 -83q-11 -9 -20 -9z" />
    <glyph glyph-name="scaron" unicode="&#x161;" horiz-adv-x="395" 
d="M195 -8q-48 0 -85 12.5t-58 29.5t-21 34q0 8 4 16.5t10.5 15t14.5 6.5q12 0 26 -11.5t38 -23.5t69 -12q53 0 74 19.5t21 43.5q0 31 -18 47.5t-46 26t-59 18.5t-59 22.5t-45.5 38t-17.5 65.5q0 33 16 65t52 53.5t96 21.5q35 0 67.5 -7.5t53 -20t20.5 -26.5q0 -6 -4 -16
t-11 -18t-18 -8q-8 0 -22.5 7.5t-35 14.5t-49.5 7q-33 0 -53 -11.5t-29 -27t-9 -31.5q0 -25 17.5 -39t46 -22.5t59.5 -17t59 -24t46 -42.5t18 -72q0 -61 -44 -97.5t-124 -36.5zM198 578q-10 0 -19 9l-102 83q-7 6 -10.5 12.5t-3.5 14.5q0 10 6 18.5t15 8.5q7 0 14 -6
l100 -84l101 84q6 6 14 6q10 0 15.5 -8.5t5.5 -18.5q0 -8 -3.5 -14.5t-11.5 -12.5l-101 -83q-11 -9 -20 -9z" />
    <glyph glyph-name="uni021A" unicode="&#x162;" horiz-adv-x="490" 
d="M245 0q-16 0 -29 7.5t-13 22.5v623h-162q-13 0 -21 12t-8 28q0 14 7 26t22 12h408q15 0 22 -12t7 -26q0 -15 -7 -27.5t-22 -12.5h-162v-623q0 -15 -13 -22.5t-29 -7.5zM190 -168q-12 0 -21 11t-9 23q0 15 13 22l117 62q6 2 10 2q13 0 21 -11t8 -23q0 -17 -14 -24
l-113 -59l-6 -2t-6 -1z" />
    <glyph glyph-name="uni021B" unicode="&#x163;" horiz-adv-x="309" 
d="M223 0q-81 0 -123.5 36t-42.5 115v515q0 13 13 21t28 8q16 0 29 -8t13 -21v-192h126q12 0 18.5 -10t6.5 -23t-6.5 -22.5t-18.5 -9.5h-126v-258q0 -43 18.5 -60.5t64.5 -17.5h31q18 0 27 -11t9 -25t-9 -25.5t-27 -11.5h-31zM99 -168q-12 0 -21 11t-9 23q0 15 13 22l117 62
q6 2 10 2q13 0 21 -11t8 -23q0 -17 -14 -24l-113 -59l-6 -2t-6 -1z" />
    <glyph glyph-name="Tcaron" unicode="&#x164;" horiz-adv-x="490" 
d="M245 0q-16 0 -29 7.5t-13 22.5v623h-162q-13 0 -21 12t-8 28q0 14 7 26t22 12h408q15 0 22 -12t7 -26q0 -15 -7 -27.5t-22 -12.5h-162v-623q0 -15 -13 -22.5t-29 -7.5zM245 836q-10 0 -19 9l-102 83q-7 6 -10.5 12.5t-3.5 14.5q0 10 6 18.5t15 8.5q7 0 14 -6l100 -84
l101 84q6 6 14 6q10 0 15.5 -8.5t5.5 -18.5q0 -8 -3.5 -14.5t-11.5 -12.5l-101 -83q-11 -9 -20 -9z" />
    <glyph glyph-name="tcaron" unicode="&#x165;" horiz-adv-x="309" 
d="M223 0q-81 0 -123.5 36t-42.5 115v515q0 13 13 21t28 8q16 0 29 -8t13 -21v-192h126q12 0 18.5 -10t6.5 -23t-6.5 -22.5t-18.5 -9.5h-126v-258q0 -43 18.5 -60.5t64.5 -17.5h31q18 0 27 -11t9 -25t-9 -25.5t-27 -11.5h-31zM237 565q-10 0 -20 6t-10 18q0 6 2 10l21 52
q-14 7 -23 20t-9 29q0 21 15 36.5t37 15.5q21 0 36.5 -15.5t15.5 -36.5q0 -5 -2.5 -15t-7.5 -24t-13.5 -35t-21.5 -48q-3 -7 -9 -10t-11 -3z" />
    <glyph glyph-name="Tbar" unicode="&#x166;" horiz-adv-x="492" 
d="M246 0q-15 0 -28.5 7.5t-13.5 22.5v302h-116q-12 0 -19 10t-7 23q0 12 7 22.5t19 10.5h116v255h-162q-13 0 -21 12t-8 28q0 14 7.5 26t21.5 12h408q15 0 22 -12t7 -26q0 -15 -7 -27.5t-22 -12.5h-162v-255h115q13 0 19.5 -10t6.5 -22q0 -13 -6 -23.5t-20 -10.5h-115v-302
q0 -15 -13 -22.5t-29 -7.5z" />
    <glyph glyph-name="tbar" unicode="&#x167;" horiz-adv-x="312" 
d="M223 0q-81 0 -123.5 36t-42.5 115v515q0 13 13 21t28 8q16 0 29 -8t13 -21v-192h126q12 0 18.5 -10t6.5 -23t-6.5 -22.5t-18.5 -9.5h-126v-94h126q12 0 18.5 -10t6.5 -23t-6.5 -22.5t-18.5 -9.5h-126v-99q0 -43 18.5 -60.5t64.5 -17.5h31q18 0 27 -11t9 -25t-9 -25.5
t-27 -11.5h-31z" />
    <glyph glyph-name="Utilde" unicode="&#x168;" horiz-adv-x="572" 
d="M286 -6q-62 0 -111 21.5t-78 69t-29 127.5v490q0 15 12.5 22t29.5 7q16 0 29 -7t13 -22v-490q0 -73 35 -107.5t99 -34.5q63 0 98.5 34.5t35.5 107.5v490q0 15 13 22t29 7t29 -7t13 -22v-490q0 -80 -29 -127.5t-78.5 -69t-110.5 -21.5zM361 854q-29 0 -49.5 8.5
t-40.5 16.5t-46 8q-21 0 -35 -7t-23 -14.5t-18 -7.5q-8 0 -13 5t-7.5 12t-2.5 12q0 17 9.5 28.5t23.5 18.5t29 10.5t25 3.5q28 0 48 -8t40.5 -16.5t46.5 -8.5q22 0 34.5 7t21 13.5t17.5 6.5t14 -5t7.5 -11.5t2.5 -11.5q0 -18 -9.5 -29.5t-23 -18.5t-27.5 -9.5t-24 -2.5z" />
    <glyph glyph-name="utilde" unicode="&#x169;" horiz-adv-x="504" 
d="M253 -8q-55 0 -100 27t-72 71t-27 94v260q0 11 12.5 20.5t29.5 9.5t29 -9.5t12 -20.5v-260q0 -29 15.5 -56t41.5 -44t58 -17t58 17t41 44t15 56v261q0 12 13 20.5t29 8.5q19 0 30 -8.5t11 -20.5v-261q0 -51 -26.5 -94.5t-71.5 -70.5t-98 -27zM327 596q-29 0 -49.5 8.5
t-40.5 16.5t-46 8q-21 0 -35 -7t-23 -14.5t-18 -7.5q-8 0 -13 5t-7.5 12t-2.5 12q0 17 9.5 28.5t23.5 18.5t29 10.5t25 3.5q28 0 48 -8t40.5 -16.5t46.5 -8.5q22 0 34.5 7t21 13.5t17.5 6.5t14 -5t7.5 -11.5t2.5 -11.5q0 -18 -9.5 -29.5t-23 -18.5t-27.5 -9.5t-24 -2.5z" />
    <glyph glyph-name="Umacron" unicode="&#x16a;" horiz-adv-x="572" 
d="M286 -6q-62 0 -111 21.5t-78 69t-29 127.5v490q0 15 12.5 22t29.5 7q16 0 29 -7t13 -22v-490q0 -73 35 -107.5t99 -34.5q63 0 98.5 34.5t35.5 107.5v490q0 15 13 22t29 7t29 -7t13 -22v-490q0 -80 -29 -127.5t-78.5 -69t-110.5 -21.5zM179 879q-13 0 -21 8.5t-8 21.5
t8 22t21 9h212q11 0 20.5 -9t9.5 -22t-9.5 -21.5t-20.5 -8.5h-212z" />
    <glyph glyph-name="umacron" unicode="&#x16b;" horiz-adv-x="504" 
d="M253 -8q-55 0 -100 27t-72 71t-27 94v260q0 11 12.5 20.5t29.5 9.5t29 -9.5t12 -20.5v-260q0 -29 15.5 -56t41.5 -44t58 -17t58 17t41 44t15 56v261q0 12 13 20.5t29 8.5q19 0 30 -8.5t11 -20.5v-261q0 -51 -26.5 -94.5t-71.5 -70.5t-98 -27zM145 622q-13 0 -21 8.5
t-8 21.5t8 22t21 9h212q11 0 20.5 -9t9.5 -22t-9.5 -21.5t-20.5 -8.5h-212z" />
    <glyph glyph-name="Ubreve" unicode="&#x16c;" horiz-adv-x="572" 
d="M286 -6q-62 0 -111 21.5t-78 69t-29 127.5v490q0 15 12.5 22t29.5 7q16 0 29 -7t13 -22v-490q0 -73 35 -107.5t99 -34.5q63 0 98.5 34.5t35.5 107.5v490q0 15 13 22t29 7t29 -7t13 -22v-490q0 -80 -29 -127.5t-78.5 -69t-110.5 -21.5zM286 846q-41 0 -75.5 28.5
t-43.5 69.5q-2 10 4 16.5t16 6.5h10q9 0 14 -5.5t8 -14.5q6 -25 25 -42t42 -17q24 0 43 17t24 42q3 9 8 14.5t14 5.5h9q11 0 17 -6.5t4 -17.5q-9 -40 -43.5 -68.5t-75.5 -28.5z" />
    <glyph glyph-name="ubreve" unicode="&#x16d;" horiz-adv-x="504" 
d="M253 -8q-55 0 -100 27t-72 71t-27 94v260q0 11 12.5 20.5t29.5 9.5t29 -9.5t12 -20.5v-260q0 -29 15.5 -56t41.5 -44t58 -17t58 17t41 44t15 56v261q0 12 13 20.5t29 8.5q19 0 30 -8.5t11 -20.5v-261q0 -51 -26.5 -94.5t-71.5 -70.5t-98 -27zM252 589q-41 0 -75.5 28.5
t-43.5 69.5q-2 10 4 16.5t16 6.5h10q9 0 14 -5.5t8 -14.5q6 -25 25 -42t42 -17q24 0 43 17t24 42q3 9 8 14.5t14 5.5h9q11 0 17 -6.5t4 -17.5q-9 -40 -43.5 -68.5t-75.5 -28.5z" />
    <glyph glyph-name="Uring" unicode="&#x16e;" horiz-adv-x="572" 
d="M286 -6q-62 0 -111 21.5t-78 69t-29 127.5v490q0 15 12.5 22t29.5 7q16 0 29 -7t13 -22v-490q0 -73 35 -107.5t99 -34.5q63 0 98.5 34.5t35.5 107.5v490q0 15 13 22t29 7t29 -7t13 -22v-490q0 -80 -29 -127.5t-78.5 -69t-110.5 -21.5zM286 825q-26 0 -47.5 13.5t-34 36
t-12.5 47.5t12.5 46.5t34 35t47.5 13.5q25 0 46.5 -13t34.5 -35t13 -47t-13 -47t-34.5 -36t-46.5 -14zM286 863q22 0 38.5 18.5t16.5 40.5q0 20 -16.5 37.5t-38.5 17.5q-24 0 -40 -18t-16 -37q0 -22 16.5 -40.5t39.5 -18.5z" />
    <glyph glyph-name="uring" unicode="&#x16f;" horiz-adv-x="504" 
d="M253 -8q-55 0 -100 27t-72 71t-27 94v260q0 11 12.5 20.5t29.5 9.5t29 -9.5t12 -20.5v-260q0 -29 15.5 -56t41.5 -44t58 -17t58 17t41 44t15 56v261q0 12 13 20.5t29 8.5q19 0 30 -8.5t11 -20.5v-261q0 -51 -26.5 -94.5t-71.5 -70.5t-98 -27zM252 568q-26 0 -47.5 13.5
t-34 36t-12.5 47.5t12.5 46.5t34 35t47.5 13.5q25 0 46.5 -13t34.5 -35t13 -47t-13 -47t-34.5 -36t-46.5 -14zM252 606q22 0 38.5 18.5t16.5 40.5q0 20 -16.5 37.5t-38.5 17.5q-24 0 -40 -18t-16 -37q0 -22 16.5 -40.5t39.5 -18.5z" />
    <glyph glyph-name="Uhungarumlaut" unicode="&#x170;" horiz-adv-x="572" 
d="M286 -6q-62 0 -111 21.5t-78 69t-29 127.5v490q0 15 12.5 22t29.5 7q16 0 29 -7t13 -22v-490q0 -73 35 -107.5t99 -34.5q63 0 98.5 34.5t35.5 107.5v490q0 15 13 22t29 7t29 -7t13 -22v-490q0 -80 -29 -127.5t-78.5 -69t-110.5 -21.5zM332 842q-11 0 -20.5 9t-9.5 19
q0 9 8 15l93 74q3 3 6.5 4t6.5 1q11 0 19 -9t8 -19q0 -11 -9 -17l-88 -71q-6 -6 -14 -6zM180 842q-11 0 -20.5 9t-9.5 19q0 9 8 15l92 74q4 3 7 4t6 1q12 0 20 -9t8 -19q0 -11 -9 -17l-88 -71q-6 -6 -14 -6z" />
    <glyph glyph-name="uhungarumlaut" unicode="&#x171;" horiz-adv-x="504" 
d="M253 -8q-55 0 -100 27t-72 71t-27 94v260q0 11 12.5 20.5t29.5 9.5t29 -9.5t12 -20.5v-260q0 -29 15.5 -56t41.5 -44t58 -17t58 17t41 44t15 56v261q0 12 13 20.5t29 8.5q19 0 30 -8.5t11 -20.5v-261q0 -51 -26.5 -94.5t-71.5 -70.5t-98 -27zM298 585q-11 0 -20.5 9
t-9.5 19q0 9 8 15l93 74q3 3 6.5 4t6.5 1q11 0 19 -9t8 -19q0 -11 -9 -17l-88 -71q-6 -6 -14 -6zM146 585q-11 0 -20.5 9t-9.5 19q0 9 8 15l92 74q4 3 7 4t6 1q12 0 20 -9t8 -19q0 -11 -9 -17l-88 -71q-6 -6 -14 -6z" />
    <glyph glyph-name="Uogonek" unicode="&#x172;" horiz-adv-x="572" 
d="M286 -6q-62 0 -111 21.5t-78 69t-29 127.5v490q0 15 12.5 22t29.5 7q16 0 29 -7t13 -22v-490q0 -73 35 -107.5t99 -34.5q63 0 98.5 34.5t35.5 107.5v490q0 15 13 22t29 7t29 -7t13 -22v-490q0 -80 -29 -127.5t-78.5 -69t-110.5 -21.5zM345 -204q-28 0 -51 8.5t-37 26
t-14 44.5q0 42 23 80t62 67l36 -17q-31 -25 -52.5 -56.5t-21.5 -66.5q0 -24 15.5 -34.5t45.5 -10.5q10 0 15 -6.5t5 -15.5q0 -8 -5 -13.5t-21 -5.5z" />
    <glyph glyph-name="uogonek" unicode="&#x173;" horiz-adv-x="504" 
d="M253 -8q-55 0 -100 27t-72 71t-27 94v260q0 11 12.5 20.5t29.5 9.5t29 -9.5t12 -20.5v-260q0 -29 15.5 -56t41.5 -44t58 -17t58 17t41 44t15 56v261q0 12 13 20.5t29 8.5q19 0 30 -8.5t11 -20.5v-261q0 -51 -26.5 -94.5t-71.5 -70.5t-98 -27zM299 -204q-28 0 -51 8.5
t-37 26t-14 44.5q0 42 23 80t62 67l36 -17q-31 -25 -52.5 -56.5t-21.5 -66.5q0 -24 15.5 -34.5t45.5 -10.5q10 0 15 -6.5t5 -15.5q0 -8 -5 -13.5t-21 -5.5z" />
    <glyph glyph-name="Wcircumflex" unicode="&#x174;" horiz-adv-x="811" 
d="M268 -6q-17 0 -32.5 7.5t-19.5 21.5l-198 665q-1 4 -1 9q0 10 8 17.5t19.5 12t22.5 4.5t20.5 -4.5t11.5 -14.5l169 -594l95 366q4 14 16.5 20t26.5 6q15 0 27 -6t15 -20l96 -366l169 594q3 10 11.5 14.5t19.5 4.5q12 0 23.5 -4.5t19.5 -12t8 -17.5q0 -5 -2 -9l-196 -665
q-5 -14 -20 -21.5t-33 -7.5q-17 0 -32.5 7.5t-18.5 21.5l-87 330l-86 -330q-4 -14 -19 -21.5t-33 -7.5zM293 839q-9 0 -16 9t-7 20q0 8 4 15t11 11l104 56q9 5 17 5q9 0 17 -5l104 -55q9 -4 12.5 -12t3.5 -16q0 -11 -6.5 -19.5t-16.5 -8.5q-2 0 -4.5 1t-5.5 2l-104 56
l-104 -56q-2 -1 -4.5 -2t-4.5 -1z" />
    <glyph glyph-name="wcircumflex" unicode="&#x175;" horiz-adv-x="673" 
d="M206 -9q-12 0 -20.5 4.5t-13.5 16.5l-155 412q-2 5 -3.5 9.5t-1.5 6.5q0 11 8.5 19t20.5 12.5t23 4.5q9 0 16.5 -4t10.5 -12l120 -336l95 303q4 11 12 15.5t19 4.5t19.5 -4.5t11.5 -15.5l93 -306l122 339q5 16 26 16q11 0 23 -4.5t20.5 -12.5t8.5 -19q0 -3 -1.5 -8
t-2.5 -8l-156 -415q-4 -10 -13 -14t-20 -4q-13 0 -21.5 4.5t-12.5 13.5l-97 294l-95 -291q-4 -10 -14 -15.5t-22 -5.5zM223 581q-9 0 -16 9t-7 20q0 8 4 15t11 11l104 56q9 5 17 5q9 0 17 -5l104 -55q9 -4 12.5 -12t3.5 -16q0 -11 -6.5 -19.5t-16.5 -8.5q-2 0 -4.5 1t-5.5 2
l-104 56l-104 -56q-2 -1 -4.5 -2t-4.5 -1z" />
    <glyph glyph-name="Ycircumflex" unicode="&#x176;" horiz-adv-x="541" 
d="M270 0q-15 0 -28.5 7.5t-13.5 22.5v253q0 6 -2 10l-207 386q-2 5 -3 9.5t-1 7.5q0 10 8 18t19.5 12.5t22.5 4.5t17.5 -5.5t12.5 -16.5l175 -343l176 343q6 11 13 16.5t17 5.5q11 0 22.5 -4.5t19.5 -12.5t8 -18q0 -3 -1 -7.5t-3 -9.5l-207 -386q-3 -4 -3 -10v-253
q0 -15 -13 -22.5t-29 -7.5zM158 839q-9 0 -16 9t-7 20q0 8 4 15t11 11l104 56q9 5 17 5q9 0 17 -5l104 -55q9 -4 12.5 -12t3.5 -16q0 -11 -6.5 -19.5t-16.5 -8.5q-2 0 -4.5 1t-5.5 2l-104 56l-104 -56q-2 -1 -4.5 -2t-4.5 -1z" />
    <glyph glyph-name="ycircumflex" unicode="&#x177;" horiz-adv-x="435" 
d="M50 -229q-16 0 -27 7.5t-11 29.5q0 14 5.5 25t18.5 11q22 0 44 12.5t42.5 37t35.5 57.5t22 73l-166 405q-3 6 -3 11q0 11 9 20t21.5 14.5t23.5 5.5q8 0 16 -4t10 -13l133 -348l119 348q3 9 10.5 13t15.5 4q10 0 22.5 -5.5t21.5 -14.5t9 -21q0 -6 -2 -10l-153 -407
q-15 -41 -32 -85t-40.5 -81.5t-58.5 -61t-86 -23.5zM105 581q-9 0 -16 9t-7 20q0 8 4 15t11 11l104 56q9 5 17 5q9 0 17 -5l104 -55q9 -4 12.5 -12t3.5 -16q0 -11 -6.5 -19.5t-16.5 -8.5q-2 0 -4.5 1t-5.5 2l-104 56l-104 -56q-2 -1 -4.5 -2t-4.5 -1z" />
    <glyph glyph-name="Ydieresis" unicode="&#x178;" horiz-adv-x="541" 
d="M270 0q-15 0 -28.5 7.5t-13.5 22.5v253q0 6 -2 10l-207 386q-2 5 -3 9.5t-1 7.5q0 10 8 18t19.5 12.5t22.5 4.5t17.5 -5.5t12.5 -16.5l175 -343l176 343q6 11 13 16.5t17 5.5q11 0 22.5 -4.5t19.5 -12.5t8 -18q0 -3 -1 -7.5t-3 -9.5l-207 -386q-3 -4 -3 -10v-253
q0 -15 -13 -22.5t-29 -7.5zM336 839q-17 0 -28.5 12.5t-11.5 29.5t11.5 29t28.5 12t28.5 -12t11.5 -29t-11.5 -29.5t-28.5 -12.5zM206 839q-17 0 -29 12.5t-12 29.5t12 29t29 12t28.5 -12t11.5 -29t-11.5 -29.5t-28.5 -12.5z" />
    <glyph glyph-name="Zacute" unicode="&#x179;" horiz-adv-x="493" 
d="M49 0q-14 0 -21.5 7.5t-7.5 19.5q0 14 8 29l323 599h-288q-14 0 -21.5 11.5t-7.5 26.5q0 14 7 26t22 12h368q14 0 21.5 -7t7.5 -18q0 -15 -10 -32l-322 -598h316q15 0 22.5 -12t7.5 -26t-7.5 -26t-22.5 -12h-395zM200 835q-12 0 -21 11t-9 23q0 16 13 22l117 62q6 2 10 2
q13 0 20.5 -10.5t7.5 -23.5q0 -16 -14 -24l-113 -58q-3 -1 -5.5 -2.5t-5.5 -1.5z" />
    <glyph glyph-name="zacute" unicode="&#x17a;" horiz-adv-x="410" 
d="M54 0q-15 0 -23 9.5t-8 21.5q0 9 4 18t9 15l231 339h-207q-11 0 -19.5 10t-8.5 25t8 25.5t20 10.5h286q12 0 21 -8t9 -24t-12 -32l-232 -339h229q12 0 20 -10.5t8 -25.5q0 -14 -8 -24.5t-20 -10.5h-307zM165 578q-12 0 -21 11t-9 23q0 16 13 22l117 62q6 2 10 2
q13 0 20.5 -10.5t7.5 -23.5q0 -16 -14 -24l-113 -58q-3 -1 -5.5 -2.5t-5.5 -1.5z" />
    <glyph glyph-name="Zdotaccent" unicode="&#x17b;" horiz-adv-x="493" 
d="M49 0q-14 0 -21.5 7.5t-7.5 19.5q0 14 8 29l323 599h-288q-14 0 -21.5 11.5t-7.5 26.5q0 14 7 26t22 12h368q14 0 21.5 -7t7.5 -18q0 -15 -10 -32l-322 -598h316q15 0 22.5 -12t7.5 -26t-7.5 -26t-22.5 -12h-395zM241 840q-18 0 -30.5 13t-12.5 31t12.5 30.5t30.5 12.5
q17 0 29.5 -12.5t12.5 -30.5t-12.5 -31t-29.5 -13z" />
    <glyph glyph-name="zdotaccent" unicode="&#x17c;" horiz-adv-x="410" 
d="M54 0q-15 0 -23 9.5t-8 21.5q0 9 4 18t9 15l231 339h-207q-11 0 -19.5 10t-8.5 25t8 25.5t20 10.5h286q12 0 21 -8t9 -24t-12 -32l-232 -339h229q12 0 20 -10.5t8 -25.5q0 -14 -8 -24.5t-20 -10.5h-307zM206 582q-18 0 -30.5 13t-12.5 31t12.5 30.5t30.5 12.5
q17 0 29.5 -12.5t12.5 -30.5t-12.5 -31t-29.5 -13z" />
    <glyph glyph-name="Zcaron" unicode="&#x17d;" horiz-adv-x="493" 
d="M49 0q-14 0 -21.5 7.5t-7.5 19.5q0 14 8 29l323 599h-288q-14 0 -21.5 11.5t-7.5 26.5q0 14 7 26t22 12h368q14 0 21.5 -7t7.5 -18q0 -15 -10 -32l-322 -598h316q15 0 22.5 -12t7.5 -26t-7.5 -26t-22.5 -12h-395zM240 836q-10 0 -19 9l-102 83q-7 6 -10.5 12.5t-3.5 14.5
q0 10 6 18.5t15 8.5q7 0 14 -6l100 -84l101 84q6 6 14 6q10 0 15.5 -8.5t5.5 -18.5q0 -8 -3.5 -14.5t-11.5 -12.5l-101 -83q-11 -9 -20 -9z" />
    <glyph glyph-name="zcaron" unicode="&#x17e;" horiz-adv-x="410" 
d="M54 0q-15 0 -23 9.5t-8 21.5q0 9 4 18t9 15l231 339h-207q-11 0 -19.5 10t-8.5 25t8 25.5t20 10.5h286q12 0 21 -8t9 -24t-12 -32l-232 -339h229q12 0 20 -10.5t8 -25.5q0 -14 -8 -24.5t-20 -10.5h-307zM205 578q-10 0 -19 9l-102 83q-7 6 -10.5 12.5t-3.5 14.5
q0 10 6 18.5t15 8.5q7 0 14 -6l100 -84l101 84q6 6 14 6q10 0 15.5 -8.5t5.5 -18.5q0 -8 -3.5 -14.5t-11.5 -12.5l-101 -83q-11 -9 -20 -9z" />
    <glyph glyph-name="florin" unicode="&#x192;" horiz-adv-x="368" 
d="M-33 -137q-13 0 -20.5 11t-7.5 26q0 17 9.5 29.5t23.5 12.5h21q19 0 32.5 17.5t22.5 45t13 59.5l71 514q8 52 38.5 95t76.5 69t97 26h29q12 0 19.5 -10.5t7.5 -25.5q0 -17 -10 -28t-22 -11h-27q-32 0 -59 -15.5t-44 -41.5t-23 -58l-22 -154h138q13 0 19 -9.5t6 -21.5
q0 -13 -7.5 -23.5t-20.5 -10.5h-144l-41 -295q-8 -52 -25.5 -98t-49 -74.5t-79.5 -28.5h-22z" />
    <glyph glyph-name="Ohorn" unicode="&#x1a0;" horiz-adv-x="559" 
d="M279 -6q-61 0 -109.5 21.5t-77 69t-28.5 127.5v301q0 80 28.5 127.5t77 69t109.5 21.5t110 -21.5t77.5 -69t28.5 -127.5v-301q0 -80 -28.5 -127.5t-77.5 -69t-110 -21.5zM279 70q62 0 97 34.5t35 107.5v301q0 73 -35 107.5t-97 34.5t-96.5 -34.5t-34.5 -107.5v-301
q0 -73 34.5 -107.5t96.5 -34.5zM304 672v59q46 0 70 17t24 49q0 15 6.5 27t22.5 12q19 0 25 -13t6 -26q0 -35 -15 -63.5t-48.5 -45t-90.5 -16.5z" />
    <glyph glyph-name="ohorn" unicode="&#x1a1;" horiz-adv-x="477" 
d="M238 -8q-53 0 -98 27.5t-72 71.5t-27 95v102q0 51 26.5 94.5t71.5 70.5t99 27q53 0 98 -26.5t72.5 -69.5t27.5 -96v-102q0 -50 -27.5 -94.5t-72.5 -72t-98 -27.5zM238 67q32 0 57.5 17t41.5 44.5t16 57.5v102q0 29 -15.5 56t-41.5 44t-58 17t-58 -17t-41 -44t-15 -56
v-102q0 -30 15 -57.5t41 -44.5t58 -17zM283 415v59q46 0 70 17t24 49q0 15 6.5 27t22.5 12q19 0 25 -13t6 -26q0 -35 -15 -63.5t-48.5 -45t-90.5 -16.5z" />
    <glyph glyph-name="Uhorn" unicode="&#x1af;" horiz-adv-x="572" 
d="M286 -6q-62 0 -111 21.5t-78 69t-29 127.5v490q0 15 12.5 22t29.5 7q16 0 29 -7t13 -22v-490q0 -73 35 -107.5t99 -34.5q63 0 98.5 34.5t35.5 107.5v490q0 15 13 22t29 7t29 -7t13 -22v-490q0 -80 -29 -127.5t-78.5 -69t-110.5 -21.5zM461 672v59q46 0 70 17t24 49
q0 15 6.5 27t22.5 12q19 0 25 -13t6 -26q0 -35 -15 -63.5t-48.5 -45t-90.5 -16.5z" />
    <glyph glyph-name="uhorn" unicode="&#x1b0;" horiz-adv-x="504" 
d="M253 -8q-55 0 -100 27t-72 71t-27 94v260q0 11 12.5 20.5t29.5 9.5t29 -9.5t12 -20.5v-260q0 -29 15.5 -56t41.5 -44t58 -17t58 17t41 44t15 56v261q0 12 13 20.5t29 8.5q19 0 30 -8.5t11 -20.5v-261q0 -51 -26.5 -94.5t-71.5 -70.5t-98 -27zM407 415v59q46 0 70 17
t24 49q0 15 6.5 27t22.5 12q19 0 25 -13t6 -26q0 -35 -15 -63.5t-48.5 -45t-90.5 -16.5z" />
    <glyph glyph-name="AEacute" unicode="&#x1fc;" horiz-adv-x="735" 
d="M106 0q-21 0 -29.5 10t-8.5 25v478q0 80 28 127.5t76 69t108 21.5h403q16 0 22.5 -12t6.5 -25q0 -15 -7.5 -27t-21.5 -12h-232v-254h139q14 0 21.5 -11t7.5 -25q0 -12 -7 -23t-22 -11h-139v-255h232q14 0 21.5 -11.5t7.5 -27.5q0 -13 -6.5 -25t-22.5 -12h-278
q-14 0 -26 7.5t-12 22.5v301h-219v-296q0 -15 -7 -25t-35 -10zM148 401h219v254h-87q-62 0 -97 -34.5t-35 -107.5v-112zM352 835q-12 0 -21 11t-9 23q0 16 13 22l117 62q6 2 10 2q13 0 20.5 -10.5t7.5 -23.5q0 -16 -14 -24l-113 -58q-3 -1 -5.5 -2.5t-5.5 -1.5z" />
    <glyph glyph-name="aeacute" unicode="&#x1fd;" horiz-adv-x="734" 
d="M173 -8q-39 0 -72 14.5t-53 44t-20 73.5q0 56 29.5 86.5t81.5 42t121 11.5h48v22q0 29 -10.5 57.5t-34.5 47.5t-66 19q-33 0 -53.5 -7.5t-33 -15t-21.5 -7.5q-14 0 -22.5 14.5t-8.5 28.5q0 16 22 28.5t55 20.5t66 8q59 0 96.5 -25t57.5 -64q24 39 64 64t88 25
q34 0 68.5 -11.5t62.5 -35.5t45 -60.5t17 -85.5q0 -33 -9.5 -49t-29 -20.5t-49.5 -4.5h-219v-30q0 -56 40 -88.5t100 -32.5q37 0 59.5 10t36.5 19.5t26 9.5q10 0 17.5 -6t12 -14.5t4.5 -17.5q0 -16 -23.5 -32.5t-61 -27.5t-80.5 -11q-56 0 -104 26.5t-75 73.5
q-33 -51 -80 -75.5t-92 -24.5zM188 59q32 0 59 16t44 40t17 46v52h-35q-43 0 -80 -5t-59.5 -22t-22.5 -54t22 -55t55 -18zM393 269h184q28 0 36 6.5t8 24.5q0 31 -14.5 56.5t-40.5 41.5t-59 16q-31 0 -57 -14.5t-41.5 -39t-15.5 -55.5v-36zM317 583q-12 0 -21 11t-9 23
q0 16 13 22l117 62q6 2 10 2q13 0 20.5 -10.5t7.5 -23.5q0 -16 -14 -24l-113 -58q-3 -1 -5.5 -2.5t-5.5 -1.5z" />
    <glyph glyph-name="Oslashacute" unicode="&#x1fe;" horiz-adv-x="559" 
d="M279 -6q-61 0 -109.5 21.5t-77 69t-28.5 127.5v301q0 80 28.5 127.5t77 69t109.5 21.5t110 -21.5t77.5 -69t28.5 -127.5v-301q0 -80 -28.5 -127.5t-77.5 -69t-110 -21.5zM279 70q62 0 97 34.5t35 107.5v301q0 73 -35 107.5t-97 34.5t-96.5 -34.5t-34.5 -107.5v-301
q0 -73 34.5 -107.5t96.5 -34.5zM97 -32q-14 0 -23 9t-9 21q0 7 3 13l375 742q7 15 25 15q12 0 23 -9.5t11 -23.5q0 -7 -3 -14l-374 -737q-4 -8 -11.5 -12t-16.5 -4zM239 835q-12 0 -21 11t-9 23q0 16 13 22l117 62q6 2 10 2q13 0 20.5 -10.5t7.5 -23.5q0 -16 -14 -24
l-113 -58q-3 -1 -5.5 -2.5t-5.5 -1.5z" />
    <glyph glyph-name="oslashacute" unicode="&#x1ff;" horiz-adv-x="477" 
d="M238 -8q-53 0 -98 27.5t-72 71.5t-27 95v102q0 51 26.5 94.5t71.5 70.5t99 27q53 0 98 -26.5t72.5 -69.5t27.5 -96v-102q0 -50 -27.5 -94.5t-72.5 -72t-98 -27.5zM238 67q32 0 57.5 17t41.5 44.5t16 57.5v102q0 29 -15.5 56t-41.5 44t-58 17t-58 -17t-41 -44t-15 -56
v-102q0 -30 15 -57.5t41 -44.5t58 -17zM85 -32q-8 0 -15 6t-7 15q0 7 4 13l31 51l242 398l29 48q6 10 17 10q9 0 16.5 -7t7.5 -17q0 -7 -5 -15l-29 -46l-244 -399l-30 -47q-5 -10 -17 -10zM198 578q-12 0 -21 11t-9 23q0 16 13 22l117 62q6 2 10 2q13 0 20.5 -10.5
t7.5 -23.5q0 -16 -14 -24l-113 -58q-3 -1 -5.5 -2.5t-5.5 -1.5z" />
    <glyph glyph-name="uni0218" unicode="&#x218;" horiz-adv-x="502" 
d="M245 -8q-64 0 -112 19.5t-74 46t-26 47.5q0 10 5.5 20.5t14 18t17.5 7.5q12 0 23.5 -12t29 -28.5t45.5 -28.5t73 -12q42 0 73 13.5t48.5 41t17.5 69.5q0 43 -18 70t-47.5 45t-64 32t-70 28.5t-64.5 36t-47 55.5t-18 86q0 55 20 91t53 57t71.5 29.5t75.5 8.5q27 0 57 -4
t57 -12t44 -20.5t17 -29.5q0 -8 -4 -18.5t-12 -19t-20 -8.5q-11 0 -27 9.5t-42.5 19t-69.5 9.5q-36 0 -67.5 -10t-50 -33t-18.5 -61q0 -36 18 -59t47 -38t64 -27.5t70 -29t64.5 -40.5t47.5 -62.5t18 -96.5q0 -72 -28.5 -118.5t-77.5 -69t-113 -22.5zM211 -168q-12 0 -21 11
t-9 23q0 15 13 22l117 62q6 2 10 2q13 0 21 -11t8 -23q0 -17 -14 -24l-113 -59l-6 -2t-6 -1z" />
    <glyph glyph-name="uni0219" unicode="&#x219;" horiz-adv-x="395" 
d="M195 -8q-48 0 -85 12.5t-58 29.5t-21 34q0 8 4 16.5t10.5 15t14.5 6.5q12 0 26 -11.5t38 -23.5t69 -12q53 0 74 19.5t21 43.5q0 31 -18 47.5t-46 26t-59 18.5t-59 22.5t-45.5 38t-17.5 65.5q0 33 16 65t52 53.5t96 21.5q35 0 67.5 -7.5t53 -20t20.5 -26.5q0 -6 -4 -16
t-11 -18t-18 -8q-8 0 -22.5 7.5t-35 14.5t-49.5 7q-33 0 -53 -11.5t-29 -27t-9 -31.5q0 -25 17.5 -39t46 -22.5t59.5 -17t59 -24t46 -42.5t18 -72q0 -61 -44 -97.5t-124 -36.5zM146 -168q-12 0 -21 11t-9 23q0 15 13 22l117 62q6 2 10 2q13 0 21 -11t8 -23q0 -17 -14 -24
l-113 -59l-6 -2t-6 -1z" />
    <glyph glyph-name="uni0237" unicode="&#x237;" horiz-adv-x="202" 
d="M6 -229q-24 0 -34 11.5t-10 24.5q0 17 10.5 27t23.5 10q29 0 42.5 15t17 41.5t3.5 59.5v485q0 13 12 21t29 8q18 0 30 -8t12 -21v-485q0 -55 -14 -98t-44 -67t-78 -24z" />
    <glyph glyph-name="uni0259" unicode="&#x259;" horiz-adv-x="465" 
d="M225 -8q-51 0 -95 24t-70.5 65.5t-26.5 94.5q0 41 13 58t33.5 21t42.5 4h219v30q0 56 -39.5 88.5t-102.5 32.5q-38 0 -60 -9.5t-35 -19.5t-26 -10q-10 0 -17.5 6.5t-12 15.5t-4.5 16q0 13 19.5 29.5t54.5 29t84 12.5q65 0 115 -24.5t78.5 -68t28.5 -101.5v-105
q0 -51 -27 -93.5t-72 -69t-100 -26.5zM226 58q32 0 58 14.5t41.5 39.5t15.5 55v36h-185q-26 0 -35 -6.5t-9 -25.5q0 -30 14.5 -55.5t40.5 -41.5t59 -16z" />
    <glyph glyph-name="circumflex" unicode="&#x2c6;" horiz-adv-x="273" 
d="M23 588q-9 0 -16 9t-7 20q0 8 4 15t11 11l104 56q9 5 17 5q9 0 17 -5l104 -55q9 -4 12.5 -12t3.5 -16q0 -11 -6.5 -19.5t-16.5 -8.5q-2 0 -4.5 1t-5.5 2l-104 56l-104 -56q-2 -1 -4.5 -2t-4.5 -1z" />
    <glyph glyph-name="caron" unicode="&#x2c7;" horiz-adv-x="272" 
d="M135 585q-10 0 -19 9l-102 83q-7 6 -10.5 12.5t-3.5 14.5q0 10 6 18.5t15 8.5q7 0 14 -6l100 -84l101 84q6 6 14 6q10 0 15.5 -8.5t5.5 -18.5q0 -8 -3.5 -14.5t-11.5 -12.5l-101 -83q-11 -9 -20 -9z" />
    <glyph glyph-name="breve" unicode="&#x2d8;" horiz-adv-x="239" 
d="M119 595q-41 0 -75.5 28.5t-43.5 69.5q-2 10 4 16.5t16 6.5h10q9 0 14 -5.5t8 -14.5q6 -25 25 -42t42 -17q24 0 43 17t24 42q3 9 8 14.5t14 5.5h9q11 0 17 -6.5t4 -17.5q-9 -40 -43.5 -68.5t-75.5 -28.5z" />
    <glyph glyph-name="dotaccent" unicode="&#x2d9;" horiz-adv-x="209" 
d="M105 589q-18 0 -30.5 13t-12.5 31t12.5 30.5t30.5 12.5q17 0 29.5 -12.5t12.5 -30.5t-12.5 -31t-29.5 -13z" />
    <glyph glyph-name="uni030A" unicode="&#x2da;" 
d="M94 576q-26 0 -47.5 13.5t-34 36t-12.5 47.5t12.5 46.5t34 35t47.5 13.5q25 0 46.5 -13t34.5 -35t13 -47t-13 -47t-34.5 -36t-46.5 -14zM94 614q22 0 38.5 18.5t16.5 40.5q0 20 -16.5 37.5t-38.5 17.5q-24 0 -40 -18t-16 -37q0 -22 16.5 -40.5t39.5 -18.5z" />
    <glyph glyph-name="ogonek" unicode="&#x2db;" horiz-adv-x="128" 
d="M102 -204q-28 0 -51 8.5t-37 26t-14 44.5q0 42 23 80t62 67l36 -17q-31 -25 -52.5 -56.5t-21.5 -66.5q0 -24 15.5 -34.5t45.5 -10.5q10 0 15 -6.5t5 -15.5q0 -8 -5 -13.5t-21 -5.5z" />
    <glyph glyph-name="tilde" unicode="&#x2dc;" horiz-adv-x="319" 
d="M235 603q-29 0 -49.5 8.5t-40.5 16.5t-46 8q-21 0 -35 -7t-23 -14.5t-18 -7.5q-8 0 -13 5t-7.5 12t-2.5 12q0 17 9.5 28.5t23.5 18.5t29 10.5t25 3.5q28 0 48 -8t40.5 -16.5t46.5 -8.5q22 0 34.5 7t21 13.5t17.5 6.5t14 -5t7.5 -11.5t2.5 -11.5q0 -18 -9.5 -29.5
t-23 -18.5t-27.5 -9.5t-24 -2.5z" />
    <glyph glyph-name="uni030B" unicode="&#x2dd;" 
d="M182 583q-11 0 -20.5 9t-9.5 19q0 9 8 15l93 74q3 3 6.5 4t6.5 1q11 0 19 -9t8 -19q0 -11 -9 -17l-88 -71q-6 -6 -14 -6zM30 583q-11 0 -20.5 9t-9.5 19q0 9 8 15l92 74q4 3 7 4t6 1q12 0 20 -9t8 -19q0 -11 -9 -17l-88 -71q-6 -6 -14 -6z" />
    <glyph glyph-name="gravecomb" unicode="&#x300;" 
d="M138 584q-2 0 -5 1.5t-6 2.5l-113 58q-14 8 -14 24q0 13 8 23.5t20 10.5q5 0 10 -2l117 -62q13 -6 13 -22q0 -12 -8.5 -23t-21.5 -11z" />
    <glyph glyph-name="acutecomb" unicode="&#x301;" 
d="M30 584q-12 0 -21 11t-9 23q0 16 13 22l117 62q6 2 10 2q13 0 20.5 -10.5t7.5 -23.5q0 -16 -14 -24l-113 -58q-3 -1 -5.5 -2.5t-5.5 -1.5z" />
    <glyph glyph-name="uni0302" unicode="&#x302;" 
d="M23 588q-9 0 -16 9t-7 20q0 8 4 15t11 11l104 56q9 5 17 5q9 0 17 -5l104 -55q9 -4 12.5 -12t3.5 -16q0 -11 -6.5 -19.5t-16.5 -8.5q-2 0 -4.5 1t-5.5 2l-104 56l-104 -56q-2 -1 -4.5 -2t-4.5 -1z" />
    <glyph glyph-name="tildecomb" unicode="&#x303;" 
d="M235 603q-29 0 -49.5 8.5t-40.5 16.5t-46 8q-21 0 -35 -7t-23 -14.5t-18 -7.5q-8 0 -13 5t-7.5 12t-2.5 12q0 17 9.5 28.5t23.5 18.5t29 10.5t25 3.5q28 0 48 -8t40.5 -16.5t46.5 -8.5q22 0 34.5 7t21 13.5t17.5 6.5t14 -5t7.5 -11.5t2.5 -11.5q0 -18 -9.5 -29.5
t-23 -18.5t-27.5 -9.5t-24 -2.5z" />
    <glyph glyph-name="uni0306" unicode="&#x306;" 
d="M121 595q-41 0 -75.5 28.5t-43.5 69.5q-2 10 4 16.5t16 6.5h10q9 0 14 -5.5t8 -14.5q6 -25 25 -42t42 -17q24 0 43 17t24 42q3 9 8 14.5t14 5.5h9q11 0 17 -6.5t4 -17.5q-9 -40 -43.5 -68.5t-75.5 -28.5z" />
    <glyph glyph-name="uni0307" unicode="&#x307;" 
d="M105 589q-18 0 -30.5 13t-12.5 31t12.5 30.5t30.5 12.5q17 0 29.5 -12.5t12.5 -30.5t-12.5 -31t-29.5 -13z" />
    <glyph glyph-name="uni0308" unicode="&#x308;" 
d="M171 588q-17 0 -28.5 12.5t-11.5 29.5t11.5 29t28.5 12t28.5 -12t11.5 -29t-11.5 -29.5t-28.5 -12.5zM41 588q-17 0 -29 12.5t-12 29.5t12 29t29 12t28.5 -12t11.5 -29t-11.5 -29.5t-28.5 -12.5z" />
    <glyph glyph-name="hookabovecomb" unicode="&#x309;" 
d="M107 683q14 13 30.5 20.5t38.5 7.5q30 0 46.5 -11.5t23.5 -27t7 -30.5t-7.5 -28t-20.5 -26q-5 -6 -9 -12.5t-4 -14.5q-1 -8 -7 -12.5t-15 -4.5t-15 5.5t-6 13.5q0 7 3 16.5t11 19.5l17.5 21t7.5 18q0 13 -10 20.5t-23 7.5q-12 0 -22 -5.5t-18 -11.5q-7 -5 -15.5 -6
t-16.5 8q-7 8 -5.5 16.5t9.5 15.5z" />
    <glyph glyph-name="uni030C" unicode="&#x30c;" 
d="M142 585q-10 0 -19 9l-102 83q-7 6 -10.5 12.5t-3.5 14.5q0 10 6 18.5t15 8.5q7 0 14 -6l100 -84l101 84q6 6 14 6q10 0 15.5 -8.5t5.5 -18.5q0 -8 -3.5 -14.5t-11.5 -12.5l-101 -83q-11 -9 -20 -9z" />
    <glyph glyph-name="uni0312" unicode="&#x312;" 
d="M183 584q-12 0 -21 11t-9 23q0 16 13 22l117 62q6 2 10 2q13 0 20.5 -10.5t7.5 -23.5q0 -16 -14 -24l-113 -58q-3 -1 -5.5 -2.5t-5.5 -1.5z" />
    <glyph glyph-name="uni031B" unicode="&#x31b;" 
d="M100 415v59q46 0 70 17t24 49q0 15 6.5 27t22.5 12q19 0 25 -13t6 -26q0 -35 -15 -63.5t-48.5 -45t-90.5 -16.5z" />
    <glyph glyph-name="dotbelowcomb" unicode="&#x323;" 
d="M89 -132q-23 0 -38 16t-15 36q0 22 15 37.5t38 15.5q20 0 35.5 -15.5t15.5 -37.5q0 -20 -15.5 -36t-35.5 -16z" />
    <glyph glyph-name="uni0326" unicode="&#x326;" 
d="M52 -168q-12 0 -21 11t-9 23q0 15 13 22l117 62q6 2 10 2q13 0 21 -11t8 -23q0 -17 -14 -24l-113 -59l-6 -2t-6 -1z" />
    <glyph glyph-name="uni0327" unicode="&#x327;" 
d="M80 -212q-15 0 -33.5 3t-32.5 9t-14 15q0 3 2 10t6 12.5t10 5.5t19 -7t37 -7q28 0 40 10.5t12 26.5q0 19 -15.5 29t-43.5 12l-43 3l26 99h45l-18 -67q51 -1 73.5 -23t22.5 -50q0 -18 -9.5 -36.5t-30 -31.5t-53.5 -13z" />
    <glyph glyph-name="uni0328" unicode="&#x328;" 
d="M102 -204q-28 0 -51 8.5t-37 26t-14 44.5q0 42 23 80t62 67l36 -17q-31 -25 -52.5 -56.5t-21.5 -66.5q0 -24 15.5 -34.5t45.5 -10.5q10 0 15 -6.5t5 -15.5q0 -8 -5 -13.5t-21 -5.5z" />
    <glyph glyph-name="uni0335" unicode="&#x335;" 
d="M71 205q-12 0 -20.5 10t-8.5 25q0 16 8.5 26t20.5 10h260q12 0 21 -10t9 -26q0 -15 -9 -25t-21 -10h-260z" />
    <glyph glyph-name="pi" unicode="&#x3c0;" horiz-adv-x="505" 
d="M101 0q-16 0 -29 7t-13 22v415q0 15 12 22.5t26 7.5h311q15 0 26.5 -7.5t11.5 -22.5v-415q0 -15 -13 -22t-29 -7t-29 7t-13 22v369h-219v-369q0 -15 -13 -22t-29 -7z" />
    <glyph glyph-name="Wgrave" unicode="&#x1e80;" horiz-adv-x="811" 
d="M268 -6q-17 0 -32.5 7.5t-19.5 21.5l-198 665q-1 4 -1 9q0 10 8 17.5t19.5 12t22.5 4.5t20.5 -4.5t11.5 -14.5l169 -594l95 366q4 14 16.5 20t26.5 6q15 0 27 -6t15 -20l96 -366l169 594q3 10 11.5 14.5t19.5 4.5q12 0 23.5 -4.5t19.5 -12t8 -17.5q0 -5 -2 -9l-196 -665
q-5 -14 -20 -21.5t-33 -7.5q-17 0 -32.5 7.5t-18.5 21.5l-87 330l-86 -330q-4 -14 -19 -21.5t-33 -7.5zM449 835q-2 0 -5 1.5t-6 2.5l-113 58q-14 8 -14 24q0 13 8 23.5t20 10.5q5 0 10 -2l117 -62q13 -6 13 -22q0 -12 -8.5 -23t-21.5 -11z" />
    <glyph glyph-name="wgrave" unicode="&#x1e81;" horiz-adv-x="673" 
d="M206 -9q-12 0 -20.5 4.5t-13.5 16.5l-155 412q-2 5 -3.5 9.5t-1.5 6.5q0 11 8.5 19t20.5 12.5t23 4.5q9 0 16.5 -4t10.5 -12l120 -336l95 303q4 11 12 15.5t19 4.5t19.5 -4.5t11.5 -15.5l93 -306l122 339q5 16 26 16q11 0 23 -4.5t20.5 -12.5t8.5 -19q0 -3 -1.5 -8
t-2.5 -8l-156 -415q-4 -10 -13 -14t-20 -4q-13 0 -21.5 4.5t-12.5 13.5l-97 294l-95 -291q-4 -10 -14 -15.5t-22 -5.5zM380 577q-2 0 -5 1.5t-6 2.5l-113 58q-14 8 -14 24q0 13 8 23.5t20 10.5q5 0 10 -2l117 -62q13 -6 13 -22q0 -12 -8.5 -23t-21.5 -11z" />
    <glyph glyph-name="Wacute" unicode="&#x1e82;" horiz-adv-x="811" 
d="M268 -6q-17 0 -32.5 7.5t-19.5 21.5l-198 665q-1 4 -1 9q0 10 8 17.5t19.5 12t22.5 4.5t20.5 -4.5t11.5 -14.5l169 -594l95 366q4 14 16.5 20t26.5 6q15 0 27 -6t15 -20l96 -366l169 594q3 10 11.5 14.5t19.5 4.5q12 0 23.5 -4.5t19.5 -12t8 -17.5q0 -5 -2 -9l-196 -665
q-5 -14 -20 -21.5t-33 -7.5q-17 0 -32.5 7.5t-18.5 21.5l-87 330l-86 -330q-4 -14 -19 -21.5t-33 -7.5zM365 835q-12 0 -21 11t-9 23q0 16 13 22l117 62q6 2 10 2q13 0 20.5 -10.5t7.5 -23.5q0 -16 -14 -24l-113 -58q-3 -1 -5.5 -2.5t-5.5 -1.5z" />
    <glyph glyph-name="wacute" unicode="&#x1e83;" horiz-adv-x="673" 
d="M206 -9q-12 0 -20.5 4.5t-13.5 16.5l-155 412q-2 5 -3.5 9.5t-1.5 6.5q0 11 8.5 19t20.5 12.5t23 4.5q9 0 16.5 -4t10.5 -12l120 -336l95 303q4 11 12 15.5t19 4.5t19.5 -4.5t11.5 -15.5l93 -306l122 339q5 16 26 16q11 0 23 -4.5t20.5 -12.5t8.5 -19q0 -3 -1.5 -8
t-2.5 -8l-156 -415q-4 -10 -13 -14t-20 -4q-13 0 -21.5 4.5t-12.5 13.5l-97 294l-95 -291q-4 -10 -14 -15.5t-22 -5.5zM296 578q-12 0 -21 11t-9 23q0 16 13 22l117 62q6 2 10 2q13 0 20.5 -10.5t7.5 -23.5q0 -16 -14 -24l-113 -58q-3 -1 -5.5 -2.5t-5.5 -1.5z" />
    <glyph glyph-name="Wdieresis" unicode="&#x1e84;" horiz-adv-x="811" 
d="M268 -6q-17 0 -32.5 7.5t-19.5 21.5l-198 665q-1 4 -1 9q0 10 8 17.5t19.5 12t22.5 4.5t20.5 -4.5t11.5 -14.5l169 -594l95 366q4 14 16.5 20t26.5 6q15 0 27 -6t15 -20l96 -366l169 594q3 10 11.5 14.5t19.5 4.5q12 0 23.5 -4.5t19.5 -12t8 -17.5q0 -5 -2 -9l-196 -665
q-5 -14 -20 -21.5t-33 -7.5q-17 0 -32.5 7.5t-18.5 21.5l-87 330l-86 -330q-4 -14 -19 -21.5t-33 -7.5zM471 839q-17 0 -28.5 12.5t-11.5 29.5t11.5 29t28.5 12t28.5 -12t11.5 -29t-11.5 -29.5t-28.5 -12.5zM341 839q-17 0 -29 12.5t-12 29.5t12 29t29 12t28.5 -12t11.5 -29
t-11.5 -29.5t-28.5 -12.5z" />
    <glyph glyph-name="wdieresis" unicode="&#x1e85;" horiz-adv-x="673" 
d="M206 -9q-12 0 -20.5 4.5t-13.5 16.5l-155 412q-2 5 -3.5 9.5t-1.5 6.5q0 11 8.5 19t20.5 12.5t23 4.5q9 0 16.5 -4t10.5 -12l120 -336l95 303q4 11 12 15.5t19 4.5t19.5 -4.5t11.5 -15.5l93 -306l122 339q5 16 26 16q11 0 23 -4.5t20.5 -12.5t8.5 -19q0 -3 -1.5 -8
t-2.5 -8l-156 -415q-4 -10 -13 -14t-20 -4q-13 0 -21.5 4.5t-12.5 13.5l-97 294l-95 -291q-4 -10 -14 -15.5t-22 -5.5zM401 581q-17 0 -28.5 12.5t-11.5 29.5t11.5 29t28.5 12t28.5 -12t11.5 -29t-11.5 -29.5t-28.5 -12.5zM271 581q-17 0 -29 12.5t-12 29.5t12 29t29 12
t28.5 -12t11.5 -29t-11.5 -29.5t-28.5 -12.5z" />
    <glyph glyph-name="uni1EA0" unicode="&#x1ea0;" horiz-adv-x="521" 
d="M67 0q-10 0 -22.5 4.5t-20 12.5t-7.5 18q0 4 1 8l205 665q4 15 19 22t32 7q18 0 33 -7.5t19 -21.5l204 -665q2 -4 2 -7q0 -10 -8.5 -18t-20.5 -13t-23 -5t-19 4.5t-11 14.5l-45 149h-263l-43 -149q-3 -10 -11.5 -14.5t-20.5 -4.5zM162 237h224l-112 376zM269 -132
q-23 0 -38 16t-15 36q0 22 15 37.5t38 15.5q20 0 35.5 -15.5t15.5 -37.5q0 -20 -15.5 -36t-35.5 -16z" />
    <glyph glyph-name="uni1EA1" unicode="&#x1ea1;" horiz-adv-x="423" 
d="M163 -8q-56 0 -95.5 32.5t-39.5 100.5q0 55 30 85.5t82.5 42t121.5 11.5h48v21q0 30 -11 58.5t-34.5 47t-64.5 18.5q-35 0 -55.5 -7t-32.5 -14.5t-21 -7.5q-15 0 -23 14.5t-8 27.5q0 16 22 29t55 21t65 8q70 0 112 -28t60.5 -72t18.5 -94v-256q0 -12 -11.5 -21t-29.5 -9
q-16 0 -27 9t-11 21v40q-26 -30 -63 -54t-88 -24zM189 59q29 0 56.5 16t46 40t18.5 46v52h-35q-42 0 -79.5 -5t-60.5 -21.5t-23 -52.5q0 -39 22 -57t55 -18zM220 -132q-23 0 -38 16t-15 36q0 22 15 37.5t38 15.5q20 0 35.5 -15.5t15.5 -37.5q0 -20 -15.5 -36t-35.5 -16z" />
    <glyph glyph-name="uni1EA2" unicode="&#x1ea2;" horiz-adv-x="548" 
d="M67 0q-10 0 -22.5 4.5t-20 12.5t-7.5 18q0 4 1 8l205 665q4 15 19 22t32 7q18 0 33 -7.5t19 -21.5l204 -665q2 -4 2 -7q0 -10 -8.5 -18t-20.5 -13t-23 -5t-19 4.5t-11 14.5l-45 149h-263l-43 -149q-3 -10 -11.5 -14.5t-20.5 -4.5zM162 237h224l-112 376zM200 940
q14 13 30.5 20.5t38.5 7.5q30 0 46.5 -11.5t23.5 -27t7 -30.5t-7.5 -28t-20.5 -26q-5 -6 -9 -12.5t-4 -14.5q-1 -8 -7 -12.5t-15 -4.5t-15 5.5t-6 13.5q0 7 3 16.5t11 19.5l17.5 21t7.5 18q0 13 -10 20.5t-23 7.5q-12 0 -22 -5.5t-18 -11.5q-7 -5 -15.5 -6t-16.5 8
q-7 8 -5.5 16.5t9.5 15.5z" />
    <glyph glyph-name="uni1EA3" unicode="&#x1ea3;" horiz-adv-x="447" 
d="M163 -8q-56 0 -95.5 32.5t-39.5 100.5q0 55 30 85.5t82.5 42t121.5 11.5h48v21q0 30 -11 58.5t-34.5 47t-64.5 18.5q-35 0 -55.5 -7t-32.5 -14.5t-21 -7.5q-15 0 -23 14.5t-8 27.5q0 16 22 29t55 21t65 8q70 0 112 -28t60.5 -72t18.5 -94v-256q0 -12 -11.5 -21t-29.5 -9
q-16 0 -27 9t-11 21v40q-26 -30 -63 -54t-88 -24zM189 59q29 0 56.5 16t46 40t18.5 46v52h-35q-42 0 -79.5 -5t-60.5 -21.5t-23 -52.5q0 -39 22 -57t55 -18zM142 687q14 13 30.5 20.5t38.5 7.5q30 0 46.5 -11.5t23.5 -27t7 -30.5t-7.5 -28t-20.5 -26q-5 -6 -9 -12.5
t-4 -14.5q-1 -8 -7 -12.5t-15 -4.5t-15 5.5t-6 13.5q0 7 3 16.5t11 19.5l17.5 21t7.5 18q0 13 -10 20.5t-23 7.5q-12 0 -22 -5.5t-18 -11.5q-7 -5 -15.5 -6t-16.5 8q-7 8 -5.5 16.5t9.5 15.5z" />
    <glyph glyph-name="uni1EA4" unicode="&#x1ea4;" horiz-adv-x="521" 
d="M67 0q-10 0 -22.5 4.5t-20 12.5t-7.5 18q0 4 1 8l205 665q4 15 19 22t32 7q18 0 33 -7.5t19 -21.5l204 -665q2 -4 2 -7q0 -10 -8.5 -18t-20.5 -13t-23 -5t-19 4.5t-11 14.5l-45 149h-263l-43 -149q-3 -10 -11.5 -14.5t-20.5 -4.5zM162 237h224l-112 376zM180 800
q-9 0 -16 9t-7 20q0 16 15 26l78 56q8 5 17 5q10 0 17 -5l78 -55q16 -10 16 -28q0 -11 -6.5 -19.5t-16.5 -8.5q-2 0 -4.5 1t-5.5 2l-78 56l-78 -56q-2 -1 -4.5 -2t-4.5 -1zM228 905q-12 0 -21 11t-9 23q0 16 13 22l117 62q6 2 10 2q13 0 20.5 -10.5t7.5 -23.5q0 -16 -14 -24
l-113 -58q-3 -1 -5.5 -2.5t-5.5 -1.5z" />
    <glyph glyph-name="uni1EA5" unicode="&#x1ea5;" horiz-adv-x="423" 
d="M163 -8q-56 0 -95.5 32.5t-39.5 100.5q0 55 30 85.5t82.5 42t121.5 11.5h48v21q0 30 -11 58.5t-34.5 47t-64.5 18.5q-35 0 -55.5 -7t-32.5 -14.5t-21 -7.5q-15 0 -23 14.5t-8 27.5q0 16 22 29t55 21t65 8q70 0 112 -28t60.5 -72t18.5 -94v-256q0 -12 -11.5 -21t-29.5 -9
q-16 0 -27 9t-11 21v40q-26 -30 -63 -54t-88 -24zM189 59q29 0 56.5 16t46 40t18.5 46v52h-35q-42 0 -79.5 -5t-60.5 -21.5t-23 -52.5q0 -39 22 -57t55 -18zM131 541q-9 0 -16 9t-7 20q0 16 15 26l78 56q8 5 17 5q10 0 17 -5l78 -55q16 -10 16 -28q0 -11 -6.5 -19.5
t-16.5 -8.5q-2 0 -4.5 1t-5.5 2l-78 56l-78 -56q-2 -1 -4.5 -2t-4.5 -1zM179 646q-12 0 -21 11t-9 23q0 16 13 22l117 62q6 2 10 2q13 0 20.5 -10.5t7.5 -23.5q0 -16 -14 -24l-113 -58q-3 -1 -5.5 -2.5t-5.5 -1.5z" />
    <glyph glyph-name="uni1EA6" unicode="&#x1ea6;" horiz-adv-x="521" 
d="M67 0q-10 0 -22.5 4.5t-20 12.5t-7.5 18q0 4 1 8l205 665q4 15 19 22t32 7q18 0 33 -7.5t19 -21.5l204 -665q2 -4 2 -7q0 -10 -8.5 -18t-20.5 -13t-23 -5t-19 4.5t-11 14.5l-45 149h-263l-43 -149q-3 -10 -11.5 -14.5t-20.5 -4.5zM162 237h224l-112 376zM180 802
q-9 0 -16 9t-7 20q0 16 15 26l78 56q8 5 17 5q10 0 17 -5l78 -55q16 -10 16 -28q0 -11 -6.5 -19.5t-16.5 -8.5q-2 0 -4.5 1t-5.5 2l-78 56l-78 -56q-2 -1 -4.5 -2t-4.5 -1zM343 903q-2 0 -5 1.5t-6 2.5l-113 58q-14 8 -14 24q0 13 8 23.5t20 10.5q5 0 10 -2l117 -62
q13 -6 13 -22q0 -12 -8.5 -23t-21.5 -11z" />
    <glyph glyph-name="uni1EA7" unicode="&#x1ea7;" horiz-adv-x="423" 
d="M163 -8q-56 0 -95.5 32.5t-39.5 100.5q0 55 30 85.5t82.5 42t121.5 11.5h48v21q0 30 -11 58.5t-34.5 47t-64.5 18.5q-35 0 -55.5 -7t-32.5 -14.5t-21 -7.5q-15 0 -23 14.5t-8 27.5q0 16 22 29t55 21t65 8q70 0 112 -28t60.5 -72t18.5 -94v-256q0 -12 -11.5 -21t-29.5 -9
q-16 0 -27 9t-11 21v40q-26 -30 -63 -54t-88 -24zM189 59q29 0 56.5 16t46 40t18.5 46v52h-35q-42 0 -79.5 -5t-60.5 -21.5t-23 -52.5q0 -39 22 -57t55 -18zM131 543q-9 0 -16 9t-7 20q0 16 15 26l78 56q8 5 17 5q10 0 17 -5l78 -55q16 -10 16 -28q0 -11 -6.5 -19.5
t-16.5 -8.5q-2 0 -4.5 1t-5.5 2l-78 56l-78 -56q-2 -1 -4.5 -2t-4.5 -1zM294 644q-2 0 -5 1.5t-6 2.5l-113 58q-14 8 -14 24q0 13 8 23.5t20 10.5q5 0 10 -2l117 -62q13 -6 13 -22q0 -12 -8.5 -23t-21.5 -11z" />
    <glyph glyph-name="uni1EA8" unicode="&#x1ea8;" horiz-adv-x="548" 
d="M67 0q-10 0 -22.5 4.5t-20 12.5t-7.5 18q0 4 1 8l205 665q4 15 19 22t32 7q18 0 33 -7.5t19 -21.5l204 -665q2 -4 2 -7q0 -10 -8.5 -18t-20.5 -13t-23 -5t-19 4.5t-11 14.5l-45 149h-263l-43 -149q-3 -10 -11.5 -14.5t-20.5 -4.5zM162 237h224l-112 376zM186 805
q-9 0 -16 9t-7 20q0 16 15 26l78 56q8 5 17 5q10 0 17 -5l78 -55q16 -10 16 -28q0 -11 -6.5 -19.5t-16.5 -8.5q-2 0 -4.5 1t-5.5 2l-78 56l-78 -56q-2 -1 -4.5 -2t-4.5 -1zM314 1014q14 13 30.5 20.5t38.5 7.5q30 0 46.5 -11.5t23.5 -27t7 -30.5t-7.5 -28t-20.5 -26
q-5 -6 -9 -12.5t-4 -14.5q-1 -8 -7 -12.5t-15 -4.5t-15 5.5t-6 13.5q0 7 3 16.5t11 19.5l17.5 21t7.5 18q0 13 -10 20.5t-23 7.5q-12 0 -22 -5.5t-18 -11.5q-7 -5 -15.5 -6t-16.5 8q-7 8 -5.5 16.5t9.5 15.5z" />
    <glyph glyph-name="uni1EA9" unicode="&#x1ea9;" horiz-adv-x="447" 
d="M163 -8q-56 0 -95.5 32.5t-39.5 100.5q0 55 30 85.5t82.5 42t121.5 11.5h48v21q0 30 -11 58.5t-34.5 47t-64.5 18.5q-35 0 -55.5 -7t-32.5 -14.5t-21 -7.5q-15 0 -23 14.5t-8 27.5q0 16 22 29t55 21t65 8q70 0 112 -28t60.5 -72t18.5 -94v-256q0 -12 -11.5 -21t-29.5 -9
q-16 0 -27 9t-11 21v40q-26 -30 -63 -54t-88 -24zM189 59q29 0 56.5 16t46 40t18.5 46v52h-35q-42 0 -79.5 -5t-60.5 -21.5t-23 -52.5q0 -39 22 -57t55 -18zM128 552q-9 0 -16 9t-7 20q0 16 15 26l78 56q8 5 17 5q10 0 17 -5l78 -55q16 -10 16 -28q0 -11 -6.5 -19.5
t-16.5 -8.5q-2 0 -4.5 1t-5.5 2l-78 56l-78 -56q-2 -1 -4.5 -2t-4.5 -1zM255 761q14 13 30.5 20.5t38.5 7.5q30 0 46.5 -11.5t23.5 -27t7 -30.5t-7.5 -28t-20.5 -26q-5 -6 -9 -12.5t-4 -14.5q-1 -8 -7 -12.5t-15 -4.5t-15 5.5t-6 13.5q0 7 3 16.5t11 19.5l17.5 21t7.5 18
q0 13 -10 20.5t-23 7.5q-12 0 -22 -5.5t-18 -11.5q-7 -5 -15.5 -6t-16.5 8q-7 8 -5.5 16.5t9.5 15.5z" />
    <glyph glyph-name="uni1EAA" unicode="&#x1eaa;" horiz-adv-x="521" 
d="M67 0q-10 0 -22.5 4.5t-20 12.5t-7.5 18q0 4 1 8l205 665q4 15 19 22t32 7q18 0 33 -7.5t19 -21.5l204 -665q2 -4 2 -7q0 -10 -8.5 -18t-20.5 -13t-23 -5t-19 4.5t-11 14.5l-45 149h-263l-43 -149q-3 -10 -11.5 -14.5t-20.5 -4.5zM162 237h224l-112 376zM180 800
q-9 0 -16 9t-7 20q0 16 15 26l78 56q8 5 17 5q10 0 17 -5l78 -55q16 -10 16 -28q0 -11 -6.5 -19.5t-16.5 -8.5q-2 0 -4.5 1t-5.5 2l-78 56l-78 -56q-2 -1 -4.5 -2t-4.5 -1zM348 899q-29 0 -49.5 8.5t-40.5 16.5t-46 8q-21 0 -35 -7t-23 -14.5t-18 -7.5q-8 0 -13 5t-7.5 12
t-2.5 12q0 17 9.5 28.5t23.5 18.5t29 10.5t25 3.5q28 0 48 -8t40.5 -16.5t46.5 -8.5q22 0 34.5 7t21 13.5t17.5 6.5t14 -5t7.5 -11.5t2.5 -11.5q0 -18 -9.5 -29.5t-23 -18.5t-27.5 -9.5t-24 -2.5z" />
    <glyph glyph-name="uni1EAB" unicode="&#x1eab;" horiz-adv-x="423" 
d="M163 -8q-56 0 -95.5 32.5t-39.5 100.5q0 55 30 85.5t82.5 42t121.5 11.5h48v21q0 30 -11 58.5t-34.5 47t-64.5 18.5q-35 0 -55.5 -7t-32.5 -14.5t-21 -7.5q-15 0 -23 14.5t-8 27.5q0 16 22 29t55 21t65 8q70 0 112 -28t60.5 -72t18.5 -94v-256q0 -12 -11.5 -21t-29.5 -9
q-16 0 -27 9t-11 21v40q-26 -30 -63 -54t-88 -24zM189 59q29 0 56.5 16t46 40t18.5 46v52h-35q-42 0 -79.5 -5t-60.5 -21.5t-23 -52.5q0 -39 22 -57t55 -18zM131 541q-9 0 -16 9t-7 20q0 16 15 26l78 56q8 5 17 5q10 0 17 -5l78 -55q16 -10 16 -28q0 -11 -6.5 -19.5
t-16.5 -8.5q-2 0 -4.5 1t-5.5 2l-78 56l-78 -56q-2 -1 -4.5 -2t-4.5 -1zM299 640q-29 0 -49.5 8.5t-40.5 16.5t-46 8q-21 0 -35 -7t-23 -14.5t-18 -7.5q-8 0 -13 5t-7.5 12t-2.5 12q0 17 9.5 28.5t23.5 18.5t29 10.5t25 3.5q28 0 48 -8t40.5 -16.5t46.5 -8.5q22 0 34.5 7
t21 13.5t17.5 6.5t14 -5t7.5 -11.5t2.5 -11.5q0 -18 -9.5 -29.5t-23 -18.5t-27.5 -9.5t-24 -2.5z" />
    <glyph glyph-name="uni1EAC" unicode="&#x1eac;" horiz-adv-x="521" 
d="M67 0q-10 0 -22.5 4.5t-20 12.5t-7.5 18q0 4 1 8l205 665q4 15 19 22t32 7q18 0 33 -7.5t19 -21.5l204 -665q2 -4 2 -7q0 -10 -8.5 -18t-20.5 -13t-23 -5t-19 4.5t-11 14.5l-45 149h-263l-43 -149q-3 -10 -11.5 -14.5t-20.5 -4.5zM162 237h224l-112 376zM269 -132
q-23 0 -38 16t-15 36q0 22 15 37.5t38 15.5q20 0 35.5 -15.5t15.5 -37.5q0 -20 -15.5 -36t-35.5 -16zM154 847q-9 0 -16 9t-7 20q0 8 4 15t11 11l104 56q9 5 17 5q9 0 17 -5l104 -55q9 -4 12.5 -12t3.5 -16q0 -11 -6.5 -19.5t-16.5 -8.5q-2 0 -4.5 1t-5.5 2l-104 56
l-104 -56q-2 -1 -4.5 -2t-4.5 -1z" />
    <glyph glyph-name="uni1EAD" unicode="&#x1ead;" horiz-adv-x="423" 
d="M163 -8q-56 0 -95.5 32.5t-39.5 100.5q0 55 30 85.5t82.5 42t121.5 11.5h48v21q0 30 -11 58.5t-34.5 47t-64.5 18.5q-35 0 -55.5 -7t-32.5 -14.5t-21 -7.5q-15 0 -23 14.5t-8 27.5q0 16 22 29t55 21t65 8q70 0 112 -28t60.5 -72t18.5 -94v-256q0 -12 -11.5 -21t-29.5 -9
q-16 0 -27 9t-11 21v40q-26 -30 -63 -54t-88 -24zM189 59q29 0 56.5 16t46 40t18.5 46v52h-35q-42 0 -79.5 -5t-60.5 -21.5t-23 -52.5q0 -39 22 -57t55 -18zM220 -132q-23 0 -38 16t-15 36q0 22 15 37.5t38 15.5q20 0 35.5 -15.5t15.5 -37.5q0 -20 -15.5 -36t-35.5 -16z
M105 588q-9 0 -16 9t-7 20q0 8 4 15t11 11l104 56q9 5 17 5q9 0 17 -5l104 -55q9 -4 12.5 -12t3.5 -16q0 -11 -6.5 -19.5t-16.5 -8.5q-2 0 -4.5 1t-5.5 2l-104 56l-104 -56q-2 -1 -4.5 -2t-4.5 -1z" />
    <glyph glyph-name="uni1EAE" unicode="&#x1eae;" horiz-adv-x="548" 
d="M67 0q-10 0 -22.5 4.5t-20 12.5t-7.5 18q0 4 1 8l205 665q4 15 19 22t32 7q18 0 33 -7.5t19 -21.5l204 -665q2 -4 2 -7q0 -10 -8.5 -18t-20.5 -13t-23 -5t-19 4.5t-11 14.5l-45 149h-263l-43 -149q-3 -10 -11.5 -14.5t-20.5 -4.5zM162 237h224l-112 376zM274 804
q-41 0 -75.5 28.5t-43.5 69.5q-2 10 4 16.5t16 6.5h10q9 0 14 -5.5t8 -14.5q6 -25 25 -42t42 -17q24 0 43 17t24 42q3 9 8 14.5t14 5.5h9q11 0 17 -6.5t4 -17.5q-9 -40 -43.5 -68.5t-75.5 -28.5zM262 963q-12 0 -21 11t-9 23q0 16 13 22l117 62q6 2 10 2q13 0 20.5 -10.5
t7.5 -23.5q0 -16 -14 -24l-113 -58q-3 -1 -5.5 -2.5t-5.5 -1.5z" />
    <glyph glyph-name="uni1EAF" unicode="&#x1eaf;" horiz-adv-x="447" 
d="M163 -8q-56 0 -95.5 32.5t-39.5 100.5q0 55 30 85.5t82.5 42t121.5 11.5h48v21q0 30 -11 58.5t-34.5 47t-64.5 18.5q-35 0 -55.5 -7t-32.5 -14.5t-21 -7.5q-15 0 -23 14.5t-8 27.5q0 16 22 29t55 21t65 8q70 0 112 -28t60.5 -72t18.5 -94v-256q0 -12 -11.5 -21t-29.5 -9
q-16 0 -27 9t-11 21v40q-26 -30 -63 -54t-88 -24zM189 59q29 0 56.5 16t46 40t18.5 46v52h-35q-42 0 -79.5 -5t-60.5 -21.5t-23 -52.5q0 -39 22 -57t55 -18zM216 551q-41 0 -75.5 28.5t-43.5 69.5q-2 10 4 16.5t16 6.5h10q9 0 14 -5.5t8 -14.5q6 -25 25 -42t42 -17
q24 0 43 17t24 42q3 9 8 14.5t14 5.5h9q11 0 17 -6.5t4 -17.5q-9 -40 -43.5 -68.5t-75.5 -28.5zM204 710q-12 0 -21 11t-9 23q0 16 13 22l117 62q6 2 10 2q13 0 20.5 -10.5t7.5 -23.5q0 -16 -14 -24l-113 -58q-3 -1 -5.5 -2.5t-5.5 -1.5z" />
    <glyph glyph-name="uni1EB0" unicode="&#x1eb0;" horiz-adv-x="548" 
d="M67 0q-10 0 -22.5 4.5t-20 12.5t-7.5 18q0 4 1 8l205 665q4 15 19 22t32 7q18 0 33 -7.5t19 -21.5l204 -665q2 -4 2 -7q0 -10 -8.5 -18t-20.5 -13t-23 -5t-19 4.5t-11 14.5l-45 149h-263l-43 -149q-3 -10 -11.5 -14.5t-20.5 -4.5zM162 237h224l-112 376zM270 805
q-41 0 -75.5 28.5t-43.5 69.5q-2 10 4 16.5t16 6.5h10q9 0 14 -5.5t8 -14.5q6 -25 25 -42t42 -17q24 0 43 17t24 42q3 9 8 14.5t14 5.5h9q11 0 17 -6.5t4 -17.5q-9 -40 -43.5 -68.5t-75.5 -28.5zM272 952q-2 0 -5 1.5t-6 2.5l-113 58q-14 8 -14 24q0 13 8 23.5t20 10.5
q5 0 10 -2l117 -62q13 -6 13 -22q0 -12 -8.5 -23t-21.5 -11z" />
    <glyph glyph-name="uni1EB1" unicode="&#x1eb1;" horiz-adv-x="447" 
d="M163 -8q-56 0 -95.5 32.5t-39.5 100.5q0 55 30 85.5t82.5 42t121.5 11.5h48v21q0 30 -11 58.5t-34.5 47t-64.5 18.5q-35 0 -55.5 -7t-32.5 -14.5t-21 -7.5q-15 0 -23 14.5t-8 27.5q0 16 22 29t55 21t65 8q70 0 112 -28t60.5 -72t18.5 -94v-256q0 -12 -11.5 -21t-29.5 -9
q-16 0 -27 9t-11 21v40q-26 -30 -63 -54t-88 -24zM189 59q29 0 56.5 16t46 40t18.5 46v52h-35q-42 0 -79.5 -5t-60.5 -21.5t-23 -52.5q0 -39 22 -57t55 -18zM212 552q-41 0 -75.5 28.5t-43.5 69.5q-2 10 4 16.5t16 6.5h10q9 0 14 -5.5t8 -14.5q6 -25 25 -42t42 -17
q24 0 43 17t24 42q3 9 8 14.5t14 5.5h9q11 0 17 -6.5t4 -17.5q-9 -40 -43.5 -68.5t-75.5 -28.5zM213 699q-2 0 -5 1.5t-6 2.5l-113 58q-14 8 -14 24q0 13 8 23.5t20 10.5q5 0 10 -2l117 -62q13 -6 13 -22q0 -12 -8.5 -23t-21.5 -11z" />
    <glyph glyph-name="uni1EB2" unicode="&#x1eb2;" horiz-adv-x="548" 
d="M67 0q-10 0 -22.5 4.5t-20 12.5t-7.5 18q0 4 1 8l205 665q4 15 19 22t32 7q18 0 33 -7.5t19 -21.5l204 -665q2 -4 2 -7q0 -10 -8.5 -18t-20.5 -13t-23 -5t-19 4.5t-11 14.5l-45 149h-263l-43 -149q-3 -10 -11.5 -14.5t-20.5 -4.5zM162 237h224l-112 376zM274 804
q-41 0 -75.5 28.5t-43.5 69.5q-2 10 4 16.5t16 6.5h10q9 0 14 -5.5t8 -14.5q6 -25 25 -42t42 -17q24 0 43 17t24 42q3 9 8 14.5t14 5.5h9q11 0 17 -6.5t4 -17.5q-9 -40 -43.5 -68.5t-75.5 -28.5zM192 1048q14 13 30.5 20.5t38.5 7.5q30 0 46.5 -11.5t23.5 -27t7 -30.5
t-7.5 -28t-20.5 -26q-5 -6 -9 -12.5t-4 -14.5q-1 -8 -7 -12.5t-15 -4.5t-15 5.5t-6 13.5q0 7 3 16.5t11 19.5l17.5 21t7.5 18q0 13 -10 20.5t-23 7.5q-12 0 -22 -5.5t-18 -11.5q-7 -5 -15.5 -6t-16.5 8q-7 8 -5.5 16.5t9.5 15.5z" />
    <glyph glyph-name="uni1EB3" unicode="&#x1eb3;" horiz-adv-x="447" 
d="M163 -8q-56 0 -95.5 32.5t-39.5 100.5q0 55 30 85.5t82.5 42t121.5 11.5h48v21q0 30 -11 58.5t-34.5 47t-64.5 18.5q-35 0 -55.5 -7t-32.5 -14.5t-21 -7.5q-15 0 -23 14.5t-8 27.5q0 16 22 29t55 21t65 8q70 0 112 -28t60.5 -72t18.5 -94v-256q0 -12 -11.5 -21t-29.5 -9
q-16 0 -27 9t-11 21v40q-26 -30 -63 -54t-88 -24zM189 59q29 0 56.5 16t46 40t18.5 46v52h-35q-42 0 -79.5 -5t-60.5 -21.5t-23 -52.5q0 -39 22 -57t55 -18zM216 551q-41 0 -75.5 28.5t-43.5 69.5q-2 10 4 16.5t16 6.5h10q9 0 14 -5.5t8 -14.5q6 -25 25 -42t42 -17
q24 0 43 17t24 42q3 9 8 14.5t14 5.5h9q11 0 17 -6.5t4 -17.5q-9 -40 -43.5 -68.5t-75.5 -28.5zM134 795q14 13 30.5 20.5t38.5 7.5q30 0 46.5 -11.5t23.5 -27t7 -30.5t-7.5 -28t-20.5 -26q-5 -6 -9 -12.5t-4 -14.5q-1 -8 -7 -12.5t-15 -4.5t-15 5.5t-6 13.5q0 7 3 16.5
t11 19.5l17.5 21t7.5 18q0 13 -10 20.5t-23 7.5q-12 0 -22 -5.5t-18 -11.5q-7 -5 -15.5 -6t-16.5 8q-7 8 -5.5 16.5t9.5 15.5z" />
    <glyph glyph-name="uni1EB4" unicode="&#x1eb4;" horiz-adv-x="521" 
d="M67 0q-10 0 -22.5 4.5t-20 12.5t-7.5 18q0 4 1 8l205 665q4 15 19 22t32 7q18 0 33 -7.5t19 -21.5l204 -665q2 -4 2 -7q0 -10 -8.5 -18t-20.5 -13t-23 -5t-19 4.5t-11 14.5l-45 149h-263l-43 -149q-3 -10 -11.5 -14.5t-20.5 -4.5zM162 237h224l-112 376zM273 807
q-41 0 -75.5 28.5t-43.5 69.5q-2 10 4 16.5t16 6.5h10q9 0 14 -5.5t8 -14.5q6 -25 25 -42t42 -17q24 0 43 17t24 42q3 9 8 14.5t14 5.5h9q11 0 17 -6.5t4 -17.5q-9 -40 -43.5 -68.5t-75.5 -28.5zM348 932q-29 0 -49.5 8.5t-40.5 16.5t-46 8q-21 0 -35 -7t-23 -14.5t-18 -7.5
q-8 0 -13 5t-7.5 12t-2.5 12q0 17 9.5 28.5t23.5 18.5t29 10.5t25 3.5q28 0 48 -8t40.5 -16.5t46.5 -8.5q22 0 34.5 7t21 13.5t17.5 6.5t14 -5t7.5 -11.5t2.5 -11.5q0 -18 -9.5 -29.5t-23 -18.5t-27.5 -9.5t-24 -2.5z" />
    <glyph glyph-name="uni1EB5" unicode="&#x1eb5;" horiz-adv-x="423" 
d="M163 -8q-56 0 -95.5 32.5t-39.5 100.5q0 55 30 85.5t82.5 42t121.5 11.5h48v21q0 30 -11 58.5t-34.5 47t-64.5 18.5q-35 0 -55.5 -7t-32.5 -14.5t-21 -7.5q-15 0 -23 14.5t-8 27.5q0 16 22 29t55 21t65 8q70 0 112 -28t60.5 -72t18.5 -94v-256q0 -12 -11.5 -21t-29.5 -9
q-16 0 -27 9t-11 21v40q-26 -30 -63 -54t-88 -24zM189 59q29 0 56.5 16t46 40t18.5 46v52h-35q-42 0 -79.5 -5t-60.5 -21.5t-23 -52.5q0 -39 22 -57t55 -18zM224 548q-41 0 -75.5 28.5t-43.5 69.5q-2 10 4 16.5t16 6.5h10q9 0 14 -5.5t8 -14.5q6 -25 25 -42t42 -17
q24 0 43 17t24 42q3 9 8 14.5t14 5.5h9q11 0 17 -6.5t4 -17.5q-9 -40 -43.5 -68.5t-75.5 -28.5zM299 673q-29 0 -49.5 8.5t-40.5 16.5t-46 8q-21 0 -35 -7t-23 -14.5t-18 -7.5q-8 0 -13 5t-7.5 12t-2.5 12q0 17 9.5 28.5t23.5 18.5t29 10.5t25 3.5q28 0 48 -8t40.5 -16.5
t46.5 -8.5q22 0 34.5 7t21 13.5t17.5 6.5t14 -5t7.5 -11.5t2.5 -11.5q0 -18 -9.5 -29.5t-23 -18.5t-27.5 -9.5t-24 -2.5z" />
    <glyph glyph-name="uni1EB6" unicode="&#x1eb6;" horiz-adv-x="521" 
d="M67 0q-10 0 -22.5 4.5t-20 12.5t-7.5 18q0 4 1 8l205 665q4 15 19 22t32 7q18 0 33 -7.5t19 -21.5l204 -665q2 -4 2 -7q0 -10 -8.5 -18t-20.5 -13t-23 -5t-19 4.5t-11 14.5l-45 149h-263l-43 -149q-3 -10 -11.5 -14.5t-20.5 -4.5zM162 237h224l-112 376zM269 -132
q-23 0 -38 16t-15 36q0 22 15 37.5t38 15.5q20 0 35.5 -15.5t15.5 -37.5q0 -20 -15.5 -36t-35.5 -16zM273 854q-41 0 -75.5 28.5t-43.5 69.5q-2 10 4 16.5t16 6.5h10q9 0 14 -5.5t8 -14.5q6 -25 25 -42t42 -17q24 0 43 17t24 42q3 9 8 14.5t14 5.5h9q11 0 17 -6.5t4 -17.5
q-9 -40 -43.5 -68.5t-75.5 -28.5z" />
    <glyph glyph-name="uni1EB7" unicode="&#x1eb7;" horiz-adv-x="423" 
d="M163 -8q-56 0 -95.5 32.5t-39.5 100.5q0 55 30 85.5t82.5 42t121.5 11.5h48v21q0 30 -11 58.5t-34.5 47t-64.5 18.5q-35 0 -55.5 -7t-32.5 -14.5t-21 -7.5q-15 0 -23 14.5t-8 27.5q0 16 22 29t55 21t65 8q70 0 112 -28t60.5 -72t18.5 -94v-256q0 -12 -11.5 -21t-29.5 -9
q-16 0 -27 9t-11 21v40q-26 -30 -63 -54t-88 -24zM189 59q29 0 56.5 16t46 40t18.5 46v52h-35q-42 0 -79.5 -5t-60.5 -21.5t-23 -52.5q0 -39 22 -57t55 -18zM220 -132q-23 0 -38 16t-15 36q0 22 15 37.5t38 15.5q20 0 35.5 -15.5t15.5 -37.5q0 -20 -15.5 -36t-35.5 -16z
M224 595q-41 0 -75.5 28.5t-43.5 69.5q-2 10 4 16.5t16 6.5h10q9 0 14 -5.5t8 -14.5q6 -25 25 -42t42 -17q24 0 43 17t24 42q3 9 8 14.5t14 5.5h9q11 0 17 -6.5t4 -17.5q-9 -40 -43.5 -68.5t-75.5 -28.5z" />
    <glyph glyph-name="uni1EB8" unicode="&#x1eb8;" horiz-adv-x="498" 
d="M109 0q-14 0 -26 7.5t-12 22.5v671q0 15 12 22.5t26 7.5h356q16 0 22.5 -12t6.5 -25q0 -15 -7.5 -27t-21.5 -12h-310v-254h156q14 0 21.5 -11t7.5 -25q0 -12 -6.5 -23t-22.5 -11h-156v-255h310q14 0 21.5 -11.5t7.5 -27.5q0 -13 -6.5 -25t-22.5 -12h-356zM257 -132
q-23 0 -38 16t-15 36q0 22 15 37.5t38 15.5q20 0 35.5 -15.5t15.5 -37.5q0 -20 -15.5 -36t-35.5 -16z" />
    <glyph glyph-name="uni1EB9" unicode="&#x1eb9;" horiz-adv-x="445" 
d="M264 -8q-65 0 -115 24.5t-79 68t-29 101.5v105q0 51 27.5 94t72.5 69t99 26q52 0 95.5 -24t70 -65t26.5 -95q0 -40 -13 -57.5t-33 -21.5t-42 -4h-220v-30q0 -56 40 -88.5t103 -32.5q37 0 59 10t36 19.5t25 9.5t18.5 -6.5t11.5 -15.5t4 -16q0 -13 -19 -29.5t-54.5 -29
t-83.5 -12.5zM124 269h185q27 0 35.5 6.5t8.5 25.5q0 30 -14.5 55.5t-40.5 41.5t-59 16q-31 0 -57 -14.5t-42 -39.5t-16 -55v-36zM237 -132q-23 0 -38 16t-15 36q0 22 15 37.5t38 15.5q20 0 35.5 -15.5t15.5 -37.5q0 -20 -15.5 -36t-35.5 -16z" />
    <glyph glyph-name="uni1EBA" unicode="&#x1eba;" horiz-adv-x="514" 
d="M109 0q-14 0 -26 7.5t-12 22.5v671q0 15 12 22.5t26 7.5h356q16 0 22.5 -12t6.5 -25q0 -15 -7.5 -27t-21.5 -12h-310v-254h156q14 0 21.5 -11t7.5 -25q0 -12 -6.5 -23t-22.5 -11h-156v-255h310q14 0 21.5 -11.5t7.5 -27.5q0 -13 -6.5 -25t-22.5 -12h-356zM206 940
q14 13 30.5 20.5t38.5 7.5q30 0 46.5 -11.5t23.5 -27t7 -30.5t-7.5 -28t-20.5 -26q-5 -6 -9 -12.5t-4 -14.5q-1 -8 -7 -12.5t-15 -4.5t-15 5.5t-6 13.5q0 7 3 16.5t11 19.5l17.5 21t7.5 18q0 13 -10 20.5t-23 7.5q-12 0 -22 -5.5t-18 -11.5q-7 -5 -15.5 -6t-16.5 8
q-7 8 -5.5 16.5t9.5 15.5z" />
    <glyph glyph-name="uni1EBB" unicode="&#x1ebb;" horiz-adv-x="465" 
d="M264 -8q-65 0 -115 24.5t-79 68t-29 101.5v105q0 51 27.5 94t72.5 69t99 26q52 0 95.5 -24t70 -65t26.5 -95q0 -40 -13 -57.5t-33 -21.5t-42 -4h-220v-30q0 -56 40 -88.5t103 -32.5q37 0 59 10t36 19.5t25 9.5t18.5 -6.5t11.5 -15.5t4 -16q0 -13 -19 -29.5t-54.5 -29
t-83.5 -12.5zM124 269h185q27 0 35.5 6.5t8.5 25.5q0 30 -14.5 55.5t-40.5 41.5t-59 16q-31 0 -57 -14.5t-42 -39.5t-16 -55v-36zM166 689q14 13 30.5 20.5t38.5 7.5q30 0 46.5 -11.5t23.5 -27t7 -30.5t-7.5 -28t-20.5 -26q-5 -6 -9 -12.5t-4 -14.5q-1 -8 -7 -12.5t-15 -4.5
t-15 5.5t-6 13.5q0 7 3 16.5t11 19.5l17.5 21t7.5 18q0 13 -10 20.5t-23 7.5q-12 0 -22 -5.5t-18 -11.5q-7 -5 -15.5 -6t-16.5 8q-7 8 -5.5 16.5t9.5 15.5z" />
    <glyph glyph-name="uni1EBC" unicode="&#x1ebc;" horiz-adv-x="514" 
d="M109 0q-14 0 -26 7.5t-12 22.5v671q0 15 12 22.5t26 7.5h356q16 0 22.5 -12t6.5 -25q0 -15 -7.5 -27t-21.5 -12h-310v-254h156q14 0 21.5 -11t7.5 -25q0 -12 -6.5 -23t-22.5 -11h-156v-255h310q14 0 21.5 -11.5t7.5 -27.5q0 -13 -6.5 -25t-22.5 -12h-356zM356 854
q-29 0 -49.5 8.5t-40.5 16.5t-46 8q-21 0 -35 -7t-23 -14.5t-18 -7.5q-8 0 -13 5t-7.5 12t-2.5 12q0 17 9.5 28.5t23.5 18.5t29 10.5t25 3.5q28 0 48 -8t40.5 -16.5t46.5 -8.5q22 0 34.5 7t21 13.5t17.5 6.5t14 -5t7.5 -11.5t2.5 -11.5q0 -18 -9.5 -29.5t-23 -18.5
t-27.5 -9.5t-24 -2.5z" />
    <glyph glyph-name="uni1EBD" unicode="&#x1ebd;" horiz-adv-x="465" 
d="M264 -8q-65 0 -115 24.5t-79 68t-29 101.5v105q0 51 27.5 94t72.5 69t99 26q52 0 95.5 -24t70 -65t26.5 -95q0 -40 -13 -57.5t-33 -21.5t-42 -4h-220v-30q0 -56 40 -88.5t103 -32.5q37 0 59 10t36 19.5t25 9.5t18.5 -6.5t11.5 -15.5t4 -16q0 -13 -19 -29.5t-54.5 -29
t-83.5 -12.5zM124 269h185q27 0 35.5 6.5t8.5 25.5q0 30 -14.5 55.5t-40.5 41.5t-59 16q-31 0 -57 -14.5t-42 -39.5t-16 -55v-36zM315 602q-29 0 -49.5 8.5t-40.5 16.5t-46 8q-21 0 -35 -7t-23 -14.5t-18 -7.5q-8 0 -13 5t-7.5 12t-2.5 12q0 17 9.5 28.5t23.5 18.5t29 10.5
t25 3.5q28 0 48 -8t40.5 -16.5t46.5 -8.5q22 0 34.5 7t21 13.5t17.5 6.5t14 -5t7.5 -11.5t2.5 -11.5q0 -18 -9.5 -29.5t-23 -18.5t-27.5 -9.5t-24 -2.5z" />
    <glyph glyph-name="uni1EBE" unicode="&#x1ebe;" horiz-adv-x="498" 
d="M109 0q-14 0 -26 7.5t-12 22.5v671q0 15 12 22.5t26 7.5h356q16 0 22.5 -12t6.5 -25q0 -15 -7.5 -27t-21.5 -12h-310v-254h156q14 0 21.5 -11t7.5 -25q0 -12 -6.5 -23t-22.5 -11h-156v-255h310q14 0 21.5 -11.5t7.5 -27.5q0 -13 -6.5 -25t-22.5 -12h-356zM199 800
q-9 0 -16 9t-7 20q0 16 15 26l78 56q8 5 17 5q10 0 17 -5l78 -55q16 -10 16 -28q0 -11 -6.5 -19.5t-16.5 -8.5q-2 0 -4.5 1t-5.5 2l-78 56l-78 -56q-2 -1 -4.5 -2t-4.5 -1zM247 905q-12 0 -21 11t-9 23q0 16 13 22l117 62q6 2 10 2q13 0 20.5 -10.5t7.5 -23.5q0 -16 -14 -24
l-113 -58q-3 -1 -5.5 -2.5t-5.5 -1.5z" />
    <glyph glyph-name="uni1EBF" unicode="&#x1ebf;" horiz-adv-x="445" 
d="M264 -8q-65 0 -115 24.5t-79 68t-29 101.5v105q0 51 27.5 94t72.5 69t99 26q52 0 95.5 -24t70 -65t26.5 -95q0 -40 -13 -57.5t-33 -21.5t-42 -4h-220v-30q0 -56 40 -88.5t103 -32.5q37 0 59 10t36 19.5t25 9.5t18.5 -6.5t11.5 -15.5t4 -16q0 -13 -19 -29.5t-54.5 -29
t-83.5 -12.5zM124 269h185q27 0 35.5 6.5t8.5 25.5q0 30 -14.5 55.5t-40.5 41.5t-59 16q-31 0 -57 -14.5t-42 -39.5t-16 -55v-36zM148 541q-9 0 -16 9t-7 20q0 16 15 26l78 56q8 5 17 5q10 0 17 -5l78 -55q16 -10 16 -28q0 -11 -6.5 -19.5t-16.5 -8.5q-2 0 -4.5 1t-5.5 2
l-78 56l-78 -56q-2 -1 -4.5 -2t-4.5 -1zM196 646q-12 0 -21 11t-9 23q0 16 13 22l117 62q6 2 10 2q13 0 20.5 -10.5t7.5 -23.5q0 -16 -14 -24l-113 -58q-3 -1 -5.5 -2.5t-5.5 -1.5z" />
    <glyph glyph-name="uni1EC0" unicode="&#x1ec0;" horiz-adv-x="498" 
d="M109 0q-14 0 -26 7.5t-12 22.5v671q0 15 12 22.5t26 7.5h356q16 0 22.5 -12t6.5 -25q0 -15 -7.5 -27t-21.5 -12h-310v-254h156q14 0 21.5 -11t7.5 -25q0 -12 -6.5 -23t-22.5 -11h-156v-255h310q14 0 21.5 -11.5t7.5 -27.5q0 -13 -6.5 -25t-22.5 -12h-356zM199 802
q-9 0 -16 9t-7 20q0 16 15 26l78 56q8 5 17 5q10 0 17 -5l78 -55q16 -10 16 -28q0 -11 -6.5 -19.5t-16.5 -8.5q-2 0 -4.5 1t-5.5 2l-78 56l-78 -56q-2 -1 -4.5 -2t-4.5 -1zM362 903q-2 0 -5 1.5t-6 2.5l-113 58q-14 8 -14 24q0 13 8 23.5t20 10.5q5 0 10 -2l117 -62
q13 -6 13 -22q0 -12 -8.5 -23t-21.5 -11z" />
    <glyph glyph-name="uni1EC1" unicode="&#x1ec1;" horiz-adv-x="445" 
d="M264 -8q-65 0 -115 24.5t-79 68t-29 101.5v105q0 51 27.5 94t72.5 69t99 26q52 0 95.5 -24t70 -65t26.5 -95q0 -40 -13 -57.5t-33 -21.5t-42 -4h-220v-30q0 -56 40 -88.5t103 -32.5q37 0 59 10t36 19.5t25 9.5t18.5 -6.5t11.5 -15.5t4 -16q0 -13 -19 -29.5t-54.5 -29
t-83.5 -12.5zM124 269h185q27 0 35.5 6.5t8.5 25.5q0 30 -14.5 55.5t-40.5 41.5t-59 16q-31 0 -57 -14.5t-42 -39.5t-16 -55v-36zM148 543q-9 0 -16 9t-7 20q0 16 15 26l78 56q8 5 17 5q10 0 17 -5l78 -55q16 -10 16 -28q0 -11 -6.5 -19.5t-16.5 -8.5q-2 0 -4.5 1t-5.5 2
l-78 56l-78 -56q-2 -1 -4.5 -2t-4.5 -1zM311 644q-2 0 -5 1.5t-6 2.5l-113 58q-14 8 -14 24q0 13 8 23.5t20 10.5q5 0 10 -2l117 -62q13 -6 13 -22q0 -12 -8.5 -23t-21.5 -11z" />
    <glyph glyph-name="uni1EC2" unicode="&#x1ec2;" horiz-adv-x="514" 
d="M109 0q-14 0 -26 7.5t-12 22.5v671q0 15 12 22.5t26 7.5h356q16 0 22.5 -12t6.5 -25q0 -15 -7.5 -27t-21.5 -12h-310v-254h156q14 0 21.5 -11t7.5 -25q0 -12 -6.5 -23t-22.5 -11h-156v-255h310q14 0 21.5 -11.5t7.5 -27.5q0 -13 -6.5 -25t-22.5 -12h-356zM192 805
q-9 0 -16 9t-7 20q0 16 15 26l78 56q8 5 17 5q10 0 17 -5l78 -55q16 -10 16 -28q0 -11 -6.5 -19.5t-16.5 -8.5q-2 0 -4.5 1t-5.5 2l-78 56l-78 -56q-2 -1 -4.5 -2t-4.5 -1zM320 1014q14 13 30.5 20.5t38.5 7.5q30 0 46.5 -11.5t23.5 -27t7 -30.5t-7.5 -28t-20.5 -26
q-5 -6 -9 -12.5t-4 -14.5q-1 -8 -7 -12.5t-15 -4.5t-15 5.5t-6 13.5q0 7 3 16.5t11 19.5l17.5 21t7.5 18q0 13 -10 20.5t-23 7.5q-12 0 -22 -5.5t-18 -11.5q-7 -5 -15.5 -6t-16.5 8q-7 8 -5.5 16.5t9.5 15.5z" />
    <glyph glyph-name="uni1EC3" unicode="&#x1ec3;" horiz-adv-x="465" 
d="M264 -8q-65 0 -115 24.5t-79 68t-29 101.5v105q0 51 27.5 94t72.5 69t99 26q52 0 95.5 -24t70 -65t26.5 -95q0 -40 -13 -57.5t-33 -21.5t-42 -4h-220v-30q0 -56 40 -88.5t103 -32.5q37 0 59 10t36 19.5t25 9.5t18.5 -6.5t11.5 -15.5t4 -16q0 -13 -19 -29.5t-54.5 -29
t-83.5 -12.5zM124 269h185q27 0 35.5 6.5t8.5 25.5q0 30 -14.5 55.5t-40.5 41.5t-59 16q-31 0 -57 -14.5t-42 -39.5t-16 -55v-36zM152 554q-9 0 -16 9t-7 20q0 16 15 26l78 56q8 5 17 5q10 0 17 -5l78 -55q16 -10 16 -28q0 -11 -6.5 -19.5t-16.5 -8.5q-2 0 -4.5 1t-5.5 2
l-78 56l-78 -56q-2 -1 -4.5 -2t-4.5 -1zM279 763q14 13 30.5 20.5t38.5 7.5q30 0 46.5 -11.5t23.5 -27t7 -30.5t-7.5 -28t-20.5 -26q-5 -6 -9 -12.5t-4 -14.5q-1 -8 -7 -12.5t-15 -4.5t-15 5.5t-6 13.5q0 7 3 16.5t11 19.5l17.5 21t7.5 18q0 13 -10 20.5t-23 7.5
q-12 0 -22 -5.5t-18 -11.5q-7 -5 -15.5 -6t-16.5 8q-7 8 -5.5 16.5t9.5 15.5z" />
    <glyph glyph-name="uni1EC4" unicode="&#x1ec4;" horiz-adv-x="498" 
d="M109 0q-14 0 -26 7.5t-12 22.5v671q0 15 12 22.5t26 7.5h356q16 0 22.5 -12t6.5 -25q0 -15 -7.5 -27t-21.5 -12h-310v-254h156q14 0 21.5 -11t7.5 -25q0 -12 -6.5 -23t-22.5 -11h-156v-255h310q14 0 21.5 -11.5t7.5 -27.5q0 -13 -6.5 -25t-22.5 -12h-356zM199 800
q-9 0 -16 9t-7 20q0 16 15 26l78 56q8 5 17 5q10 0 17 -5l78 -55q16 -10 16 -28q0 -11 -6.5 -19.5t-16.5 -8.5q-2 0 -4.5 1t-5.5 2l-78 56l-78 -56q-2 -1 -4.5 -2t-4.5 -1zM367 899q-29 0 -49.5 8.5t-40.5 16.5t-46 8q-21 0 -35 -7t-23 -14.5t-18 -7.5q-8 0 -13 5t-7.5 12
t-2.5 12q0 17 9.5 28.5t23.5 18.5t29 10.5t25 3.5q28 0 48 -8t40.5 -16.5t46.5 -8.5q22 0 34.5 7t21 13.5t17.5 6.5t14 -5t7.5 -11.5t2.5 -11.5q0 -18 -9.5 -29.5t-23 -18.5t-27.5 -9.5t-24 -2.5z" />
    <glyph glyph-name="uni1EC5" unicode="&#x1ec5;" horiz-adv-x="445" 
d="M264 -8q-65 0 -115 24.5t-79 68t-29 101.5v105q0 51 27.5 94t72.5 69t99 26q52 0 95.5 -24t70 -65t26.5 -95q0 -40 -13 -57.5t-33 -21.5t-42 -4h-220v-30q0 -56 40 -88.5t103 -32.5q37 0 59 10t36 19.5t25 9.5t18.5 -6.5t11.5 -15.5t4 -16q0 -13 -19 -29.5t-54.5 -29
t-83.5 -12.5zM124 269h185q27 0 35.5 6.5t8.5 25.5q0 30 -14.5 55.5t-40.5 41.5t-59 16q-31 0 -57 -14.5t-42 -39.5t-16 -55v-36zM148 541q-9 0 -16 9t-7 20q0 16 15 26l78 56q8 5 17 5q10 0 17 -5l78 -55q16 -10 16 -28q0 -11 -6.5 -19.5t-16.5 -8.5q-2 0 -4.5 1t-5.5 2
l-78 56l-78 -56q-2 -1 -4.5 -2t-4.5 -1zM316 640q-29 0 -49.5 8.5t-40.5 16.5t-46 8q-21 0 -35 -7t-23 -14.5t-18 -7.5q-8 0 -13 5t-7.5 12t-2.5 12q0 17 9.5 28.5t23.5 18.5t29 10.5t25 3.5q28 0 48 -8t40.5 -16.5t46.5 -8.5q22 0 34.5 7t21 13.5t17.5 6.5t14 -5t7.5 -11.5
t2.5 -11.5q0 -18 -9.5 -29.5t-23 -18.5t-27.5 -9.5t-24 -2.5z" />
    <glyph glyph-name="uni1EC6" unicode="&#x1ec6;" horiz-adv-x="498" 
d="M109 0q-14 0 -26 7.5t-12 22.5v671q0 15 12 22.5t26 7.5h356q16 0 22.5 -12t6.5 -25q0 -15 -7.5 -27t-21.5 -12h-310v-254h156q14 0 21.5 -11t7.5 -25q0 -12 -6.5 -23t-22.5 -11h-156v-255h310q14 0 21.5 -11.5t7.5 -27.5q0 -13 -6.5 -25t-22.5 -12h-356zM257 -132
q-23 0 -38 16t-15 36q0 22 15 37.5t38 15.5q20 0 35.5 -15.5t15.5 -37.5q0 -20 -15.5 -36t-35.5 -16zM173 847q-9 0 -16 9t-7 20q0 8 4 15t11 11l104 56q9 5 17 5q9 0 17 -5l104 -55q9 -4 12.5 -12t3.5 -16q0 -11 -6.5 -19.5t-16.5 -8.5q-2 0 -4.5 1t-5.5 2l-104 56
l-104 -56q-2 -1 -4.5 -2t-4.5 -1z" />
    <glyph glyph-name="uni1EC7" unicode="&#x1ec7;" horiz-adv-x="445" 
d="M264 -8q-65 0 -115 24.5t-79 68t-29 101.5v105q0 51 27.5 94t72.5 69t99 26q52 0 95.5 -24t70 -65t26.5 -95q0 -40 -13 -57.5t-33 -21.5t-42 -4h-220v-30q0 -56 40 -88.5t103 -32.5q37 0 59 10t36 19.5t25 9.5t18.5 -6.5t11.5 -15.5t4 -16q0 -13 -19 -29.5t-54.5 -29
t-83.5 -12.5zM124 269h185q27 0 35.5 6.5t8.5 25.5q0 30 -14.5 55.5t-40.5 41.5t-59 16q-31 0 -57 -14.5t-42 -39.5t-16 -55v-36zM237 -132q-23 0 -38 16t-15 36q0 22 15 37.5t38 15.5q20 0 35.5 -15.5t15.5 -37.5q0 -20 -15.5 -36t-35.5 -16zM122 588q-9 0 -16 9t-7 20
q0 8 4 15t11 11l104 56q9 5 17 5q9 0 17 -5l104 -55q9 -4 12.5 -12t3.5 -16q0 -11 -6.5 -19.5t-16.5 -8.5q-2 0 -4.5 1t-5.5 2l-104 56l-104 -56q-2 -1 -4.5 -2t-4.5 -1z" />
    <glyph glyph-name="uni1EC8" unicode="&#x1ec8;" horiz-adv-x="227" 
d="M113 0q-15 0 -28.5 7.5t-13.5 22.5v672q0 15 13.5 22t28.5 7q16 0 29 -7t13 -22v-672q0 -15 -13 -22.5t-29 -7.5zM39 940q14 13 30.5 20.5t38.5 7.5q30 0 46.5 -11.5t23.5 -27t7 -30.5t-7.5 -28t-20.5 -26q-5 -6 -9 -12.5t-4 -14.5q-1 -8 -7 -12.5t-15 -4.5t-15 5.5
t-6 13.5q0 7 3 16.5t11 19.5l17.5 21t7.5 18q0 13 -10 20.5t-23 7.5q-12 0 -22 -5.5t-18 -11.5q-7 -5 -15.5 -6t-16.5 8q-7 8 -5.5 16.5t9.5 15.5z" />
    <glyph glyph-name="uni1EC9" unicode="&#x1ec9;" horiz-adv-x="200" 
d="M100 0q-18 0 -29.5 9.5t-11.5 20.5v415q0 13 11.5 21t29.5 8q17 0 29.5 -8t12.5 -21v-415q0 -11 -12.5 -20.5t-29.5 -9.5zM26 689q14 13 30.5 20.5t38.5 7.5q30 0 46.5 -11.5t23.5 -27t7 -30.5t-7.5 -28t-20.5 -26q-5 -6 -9 -12.5t-4 -14.5q-1 -8 -7 -12.5t-15 -4.5
t-15 5.5t-6 13.5q0 7 3 16.5t11 19.5l17.5 21t7.5 18q0 13 -10 20.5t-23 7.5q-12 0 -22 -5.5t-18 -11.5q-7 -5 -15.5 -6t-16.5 8q-7 8 -5.5 16.5t9.5 15.5z" />
    <glyph glyph-name="uni1ECA" unicode="&#x1eca;" horiz-adv-x="202" 
d="M113 0q-15 0 -28.5 7.5t-13.5 22.5v672q0 15 13.5 22t28.5 7q16 0 29 -7t13 -22v-672q0 -15 -13 -22.5t-29 -7.5zM109 -132q-23 0 -38 16t-15 36q0 22 15 37.5t38 15.5q20 0 35.5 -15.5t15.5 -37.5q0 -20 -15.5 -36t-35.5 -16z" />
    <glyph glyph-name="uni1ECB" unicode="&#x1ecb;" horiz-adv-x="171" 
d="M100 604q-21 0 -36.5 14.5t-15.5 33.5t15.5 33t36.5 14q22 0 36.5 -14t14.5 -33t-14.5 -33.5t-36.5 -14.5zM100 0q-18 0 -29.5 9.5t-11.5 20.5v415q0 13 11.5 21t29.5 8q17 0 29.5 -8t12.5 -21v-415q0 -11 -12.5 -20.5t-29.5 -9.5zM94 -132q-23 0 -38 16t-15 36
q0 22 15 37.5t38 15.5q20 0 35.5 -15.5t15.5 -37.5q0 -20 -15.5 -36t-35.5 -16z" />
    <glyph glyph-name="uni1ECC" unicode="&#x1ecc;" horiz-adv-x="543" 
d="M279 -6q-61 0 -109.5 21.5t-77 69t-28.5 127.5v301q0 80 28.5 127.5t77 69t109.5 21.5t110 -21.5t77.5 -69t28.5 -127.5v-301q0 -80 -28.5 -127.5t-77.5 -69t-110 -21.5zM279 70q62 0 97 34.5t35 107.5v301q0 73 -35 107.5t-97 34.5t-96.5 -34.5t-34.5 -107.5v-301
q0 -73 34.5 -107.5t96.5 -34.5zM280 -132q-23 0 -38 16t-15 36q0 22 15 37.5t38 15.5q20 0 35.5 -15.5t15.5 -37.5q0 -20 -15.5 -36t-35.5 -16z" />
    <glyph glyph-name="uni1ECD" unicode="&#x1ecd;" horiz-adv-x="455" 
d="M238 -8q-53 0 -98 27.5t-72 71.5t-27 95v102q0 51 26.5 94.5t71.5 70.5t99 27q53 0 98 -26.5t72.5 -69.5t27.5 -96v-102q0 -50 -27.5 -94.5t-72.5 -72t-98 -27.5zM238 67q32 0 57.5 17t41.5 44.5t16 57.5v102q0 29 -15.5 56t-41.5 44t-58 17t-58 -17t-41 -44t-15 -56
v-102q0 -30 15 -57.5t41 -44.5t58 -17zM236 -132q-23 0 -38 16t-15 36q0 22 15 37.5t38 15.5q20 0 35.5 -15.5t15.5 -37.5q0 -20 -15.5 -36t-35.5 -16z" />
    <glyph glyph-name="uni1ECE" unicode="&#x1ece;" horiz-adv-x="559" 
d="M279 -6q-61 0 -109.5 21.5t-77 69t-28.5 127.5v301q0 80 28.5 127.5t77 69t109.5 21.5t110 -21.5t77.5 -69t28.5 -127.5v-301q0 -80 -28.5 -127.5t-77.5 -69t-110 -21.5zM279 70q62 0 97 34.5t35 107.5v301q0 73 -35 107.5t-97 34.5t-96.5 -34.5t-34.5 -107.5v-301
q0 -73 34.5 -107.5t96.5 -34.5zM205 940q14 13 30.5 20.5t38.5 7.5q30 0 46.5 -11.5t23.5 -27t7 -30.5t-7.5 -28t-20.5 -26q-5 -6 -9 -12.5t-4 -14.5q-1 -8 -7 -12.5t-15 -4.5t-15 5.5t-6 13.5q0 7 3 16.5t11 19.5l17.5 21t7.5 18q0 13 -10 20.5t-23 7.5q-12 0 -22 -5.5
t-18 -11.5q-7 -5 -15.5 -6t-16.5 8q-7 8 -5.5 16.5t9.5 15.5z" />
    <glyph glyph-name="uni1ECF" unicode="&#x1ecf;" horiz-adv-x="477" 
d="M238 -8q-53 0 -98 27.5t-72 71.5t-27 95v102q0 51 26.5 94.5t71.5 70.5t99 27q53 0 98 -26.5t72.5 -69.5t27.5 -96v-102q0 -50 -27.5 -94.5t-72.5 -72t-98 -27.5zM238 67q32 0 57.5 17t41.5 44.5t16 57.5v102q0 29 -15.5 56t-41.5 44t-58 17t-58 -17t-41 -44t-15 -56
v-102q0 -30 15 -57.5t41 -44.5t58 -17zM164 689q14 13 30.5 20.5t38.5 7.5q30 0 46.5 -11.5t23.5 -27t7 -30.5t-7.5 -28t-20.5 -26q-5 -6 -9 -12.5t-4 -14.5q-1 -8 -7 -12.5t-15 -4.5t-15 5.5t-6 13.5q0 7 3 16.5t11 19.5l17.5 21t7.5 18q0 13 -10 20.5t-23 7.5
q-12 0 -22 -5.5t-18 -11.5q-7 -5 -15.5 -6t-16.5 8q-7 8 -5.5 16.5t9.5 15.5z" />
    <glyph glyph-name="uni1ED0" unicode="&#x1ed0;" horiz-adv-x="543" 
d="M279 -6q-61 0 -109.5 21.5t-77 69t-28.5 127.5v301q0 80 28.5 127.5t77 69t109.5 21.5t110 -21.5t77.5 -69t28.5 -127.5v-301q0 -80 -28.5 -127.5t-77.5 -69t-110 -21.5zM279 70q62 0 97 34.5t35 107.5v301q0 73 -35 107.5t-97 34.5t-96.5 -34.5t-34.5 -107.5v-301
q0 -73 34.5 -107.5t96.5 -34.5zM191 800q-9 0 -16 9t-7 20q0 16 15 26l78 56q8 5 17 5q10 0 17 -5l78 -55q16 -10 16 -28q0 -11 -6.5 -19.5t-16.5 -8.5q-2 0 -4.5 1t-5.5 2l-78 56l-78 -56q-2 -1 -4.5 -2t-4.5 -1zM239 905q-12 0 -21 11t-9 23q0 16 13 22l117 62q6 2 10 2
q13 0 20.5 -10.5t7.5 -23.5q0 -16 -14 -24l-113 -58q-3 -1 -5.5 -2.5t-5.5 -1.5z" />
    <glyph glyph-name="uni1ED1" unicode="&#x1ed1;" horiz-adv-x="455" 
d="M238 -8q-53 0 -98 27.5t-72 71.5t-27 95v102q0 51 26.5 94.5t71.5 70.5t99 27q53 0 98 -26.5t72.5 -69.5t27.5 -96v-102q0 -50 -27.5 -94.5t-72.5 -72t-98 -27.5zM238 67q32 0 57.5 17t41.5 44.5t16 57.5v102q0 29 -15.5 56t-41.5 44t-58 17t-58 -17t-41 -44t-15 -56
v-102q0 -30 15 -57.5t41 -44.5t58 -17zM147 541q-9 0 -16 9t-7 20q0 16 15 26l78 56q8 5 17 5q10 0 17 -5l78 -55q16 -10 16 -28q0 -11 -6.5 -19.5t-16.5 -8.5q-2 0 -4.5 1t-5.5 2l-78 56l-78 -56q-2 -1 -4.5 -2t-4.5 -1zM195 646q-12 0 -21 11t-9 23q0 16 13 22l117 62
q6 2 10 2q13 0 20.5 -10.5t7.5 -23.5q0 -16 -14 -24l-113 -58q-3 -1 -5.5 -2.5t-5.5 -1.5z" />
    <glyph glyph-name="uni1ED2" unicode="&#x1ed2;" horiz-adv-x="543" 
d="M279 -6q-61 0 -109.5 21.5t-77 69t-28.5 127.5v301q0 80 28.5 127.5t77 69t109.5 21.5t110 -21.5t77.5 -69t28.5 -127.5v-301q0 -80 -28.5 -127.5t-77.5 -69t-110 -21.5zM279 70q62 0 97 34.5t35 107.5v301q0 73 -35 107.5t-97 34.5t-96.5 -34.5t-34.5 -107.5v-301
q0 -73 34.5 -107.5t96.5 -34.5zM191 802q-9 0 -16 9t-7 20q0 16 15 26l78 56q8 5 17 5q10 0 17 -5l78 -55q16 -10 16 -28q0 -11 -6.5 -19.5t-16.5 -8.5q-2 0 -4.5 1t-5.5 2l-78 56l-78 -56q-2 -1 -4.5 -2t-4.5 -1zM354 903q-2 0 -5 1.5t-6 2.5l-113 58q-14 8 -14 24
q0 13 8 23.5t20 10.5q5 0 10 -2l117 -62q13 -6 13 -22q0 -12 -8.5 -23t-21.5 -11z" />
    <glyph glyph-name="uni1ED3" unicode="&#x1ed3;" horiz-adv-x="455" 
d="M238 -8q-53 0 -98 27.5t-72 71.5t-27 95v102q0 51 26.5 94.5t71.5 70.5t99 27q53 0 98 -26.5t72.5 -69.5t27.5 -96v-102q0 -50 -27.5 -94.5t-72.5 -72t-98 -27.5zM238 67q32 0 57.5 17t41.5 44.5t16 57.5v102q0 29 -15.5 56t-41.5 44t-58 17t-58 -17t-41 -44t-15 -56
v-102q0 -30 15 -57.5t41 -44.5t58 -17zM147 543q-9 0 -16 9t-7 20q0 16 15 26l78 56q8 5 17 5q10 0 17 -5l78 -55q16 -10 16 -28q0 -11 -6.5 -19.5t-16.5 -8.5q-2 0 -4.5 1t-5.5 2l-78 56l-78 -56q-2 -1 -4.5 -2t-4.5 -1zM310 644q-2 0 -5 1.5t-6 2.5l-113 58q-14 8 -14 24
q0 13 8 23.5t20 10.5q5 0 10 -2l117 -62q13 -6 13 -22q0 -12 -8.5 -23t-21.5 -11z" />
    <glyph glyph-name="uni1ED4" unicode="&#x1ed4;" horiz-adv-x="559" 
d="M279 -6q-61 0 -109.5 21.5t-77 69t-28.5 127.5v301q0 80 28.5 127.5t77 69t109.5 21.5t110 -21.5t77.5 -69t28.5 -127.5v-301q0 -80 -28.5 -127.5t-77.5 -69t-110 -21.5zM279 70q62 0 97 34.5t35 107.5v301q0 73 -35 107.5t-97 34.5t-96.5 -34.5t-34.5 -107.5v-301
q0 -73 34.5 -107.5t96.5 -34.5zM191 805q-9 0 -16 9t-7 20q0 16 15 26l78 56q8 5 17 5q10 0 17 -5l78 -55q16 -10 16 -28q0 -11 -6.5 -19.5t-16.5 -8.5q-2 0 -4.5 1t-5.5 2l-78 56l-78 -56q-2 -1 -4.5 -2t-4.5 -1zM319 1014q14 13 30.5 20.5t38.5 7.5q30 0 46.5 -11.5
t23.5 -27t7 -30.5t-7.5 -28t-20.5 -26q-5 -6 -9 -12.5t-4 -14.5q-1 -8 -7 -12.5t-15 -4.5t-15 5.5t-6 13.5q0 7 3 16.5t11 19.5l17.5 21t7.5 18q0 13 -10 20.5t-23 7.5q-12 0 -22 -5.5t-18 -11.5q-7 -5 -15.5 -6t-16.5 8q-7 8 -5.5 16.5t9.5 15.5z" />
    <glyph glyph-name="uni1ED5" unicode="&#x1ed5;" horiz-adv-x="477" 
d="M238 -8q-53 0 -98 27.5t-72 71.5t-27 95v102q0 51 26.5 94.5t71.5 70.5t99 27q53 0 98 -26.5t72.5 -69.5t27.5 -96v-102q0 -50 -27.5 -94.5t-72.5 -72t-98 -27.5zM238 67q32 0 57.5 17t41.5 44.5t16 57.5v102q0 29 -15.5 56t-41.5 44t-58 17t-58 -17t-41 -44t-15 -56
v-102q0 -30 15 -57.5t41 -44.5t58 -17zM150 554q-9 0 -16 9t-7 20q0 16 15 26l78 56q8 5 17 5q10 0 17 -5l78 -55q16 -10 16 -28q0 -11 -6.5 -19.5t-16.5 -8.5q-2 0 -4.5 1t-5.5 2l-78 56l-78 -56q-2 -1 -4.5 -2t-4.5 -1zM277 762q14 13 30.5 20.5t38.5 7.5q30 0 46.5 -11.5
t23.5 -27t7 -30.5t-7.5 -28t-20.5 -26q-5 -6 -9 -12.5t-4 -14.5q-1 -8 -7 -12.5t-15 -4.5t-15 5.5t-6 13.5q0 7 3 16.5t11 19.5l17.5 21t7.5 18q0 13 -10 20.5t-23 7.5q-12 0 -22 -5.5t-18 -11.5q-7 -5 -15.5 -6t-16.5 8q-7 8 -5.5 16.5t9.5 15.5z" />
    <glyph glyph-name="uni1ED6" unicode="&#x1ed6;" horiz-adv-x="543" 
d="M279 -6q-61 0 -109.5 21.5t-77 69t-28.5 127.5v301q0 80 28.5 127.5t77 69t109.5 21.5t110 -21.5t77.5 -69t28.5 -127.5v-301q0 -80 -28.5 -127.5t-77.5 -69t-110 -21.5zM279 70q62 0 97 34.5t35 107.5v301q0 73 -35 107.5t-97 34.5t-96.5 -34.5t-34.5 -107.5v-301
q0 -73 34.5 -107.5t96.5 -34.5zM191 800q-9 0 -16 9t-7 20q0 16 15 26l78 56q8 5 17 5q10 0 17 -5l78 -55q16 -10 16 -28q0 -11 -6.5 -19.5t-16.5 -8.5q-2 0 -4.5 1t-5.5 2l-78 56l-78 -56q-2 -1 -4.5 -2t-4.5 -1zM359 899q-29 0 -49.5 8.5t-40.5 16.5t-46 8q-21 0 -35 -7
t-23 -14.5t-18 -7.5q-8 0 -13 5t-7.5 12t-2.5 12q0 17 9.5 28.5t23.5 18.5t29 10.5t25 3.5q28 0 48 -8t40.5 -16.5t46.5 -8.5q22 0 34.5 7t21 13.5t17.5 6.5t14 -5t7.5 -11.5t2.5 -11.5q0 -18 -9.5 -29.5t-23 -18.5t-27.5 -9.5t-24 -2.5z" />
    </font>
</defs>
</svg>
